Loading...
Error

Тайна Сагалы / Tajemnica Sagali / Das Geheimnis des Sagala (1-14 серии из 14) (Ежи Лукашевич) [1997 г., фэнтези, семейный, WEBRip-AVC] MVO + Original

Статистика раздачи
Размер:  4,42 GB   |    Зарегистрирован:  1 год 11 месяцев   |    Скачан:  2 раза

Полного источника не было: 1 месяц 3 дня

Сидов:  0  |  0 KB/s  ]   Личеров:  0  |  0 KB/s  ]

* - сиды/пиры с внешних источников

   
 
Автор Сообщение

makkol Пол:Муж

25-Дек-2016 11:47

Тайна Сагалы / Tajemnica Sagali / Das Geheimnis des Sagala
1-14 серии из 14


Производство: Польша , Германия [Mitteldeutscher Rundfunk (MDR), Telewizja Polska (TVP)]
Год выпуска: 1997
Жанр: фэнтези, семейный
Режиссер: Ежи Лукашевич
В ролях: Дерваль Де Фариа, Гржегорц Руда, Марчин Новацкий, Ян Янковский, Кристоф Эйхгорн, Малгожата Форемняк, Винфрид Глатцедер, Фред Дельмаре, Гертруда Роль
Сюжет фильма:
Много сотен лет назад на земле был рай. Люди могли получить все что хотели, используя магическую силу камня Сагалы. Этот камень давал безграничную власть над миром тому, кто им владел. И так продолжалось долго. Но потом на землю пришло зло и стало использовать силу Сагалы для недобрых дел. Хранитель разбил Сагалу, а осколки лишил магической силы. Так было тысячу лет. Потом еще тысячу. И вот на заре третьего тысячелетия вновь на землю приходит магия - сможет ли человечество защитить Сагалу от зла и жить в мире?
Десятилетний Куба живет в Варшаве с мамой и братом Яцеком. Мальчишка увлечен геологией и собирает всяческие камни и камешки. Так к нему в руки попал осколок Сагалы. Сразу же оказалось, что за камнем охотится какой-то странный и опасный человек. В тот же день мальчики с мамой переселяются за город в дом дедушки, где на чердаке Куба неожиданно находит другой осколок Сагалы. Дед привез его из дальнего путешествия, где спас жизнь нескольких человек из таинственного племени. Осколки соединились и Куба понял, что даже этот маленький кусочек Сагалы уже обладает магической силой.

  • Мировая премьера: 17 июля 1997


Качество видео: WEBRip-AVC

Продолжительность: 14 x ~00:25:00
Формат: MKV
Видео: MPEG-4 AVC, 720x400 (16:9), 25.000 fps, ~1400 kbps
Аудио #1: русский, профессиональный многоголосый закадровый, AC3 2.0, 48 kHz, 192 kbps
Аудио #2: польский, оригинал, AC3 2.0, 48 kHz, 192 kbps
1. Маленький волшебник / Mały czarodziej / Der kleine Zauberer
2. Магический камень / Magiczny kamień / Der magische Stein
3. Посвящённые / Wtajemniczeni / Die Eingeweihten
4. Третья часть силы / Trzecia część mocy / Dritter Teil der Macht
5. Посланники огня / Posłańcy ognia / Die Feuerboten
6. Залив туманов / Zatoka mgieł / Bucht der Nebel
7. Агнар и Гейрад / Agnarr i Geirrod / Agnarr und Geirrod
8. Школа магов / Szkoła magów / Schule der Magier
9. Поединок магов / Pojedynek magów / Duell der Magier
10. Чёрный принц / Czarny książę / Der schwarze Fürst
11. Самый короткий день / Najkrótszy dzień / Der kürzeste Tag
12. Камень Сатурна / Kamień Saturna / Der Stein des Saturns
13. Лабиринт снов / Labirynt snów / Labyrinth der Träume
14. Все части силы / Wszystkie części mocy / Alle Teile der Macht

Код:

Формат                                   : Matroska
Версия формата                           : Version 4 / Version 2
Размер файла                             : 325 Мбайт
Продолжительность                        : 25 м.
Режим общего битрейта                    : Постоянный
Общий поток                              : 1798 Кбит/сек
Дата кодирования                         : UTC 2016-10-19 21:18:29
Программа кодирования                    : mkvmerge v7.9.0 ('Birds') 64bit
Библиотека кодирования                   : libebml v1.3.1 + libmatroska v1.4.2

Видео
Идентификатор                            : 1
Формат                                   : AVC
Формат/Информация                        : Advanced Video Codec
Профиль формата                          : High@L3.1
Параметр CABAC формата                   : Да
Параметр ReFrames формата                : 3 кадра
Идентификатор кодека                     : V_MPEG4/ISO/AVC
Продолжительность                        : 25 м.
Вид битрейта                             : Постоянный
Битрейт                                  : 1421 Кбит/сек
Ширина                                   : 720 пикселей
Высота                                   : 400 пикселей
Соотношение сторон                       : 16:9
Режим частоты кадров                     : Постоянный
Частота кадров                           : 25,000 кадров/сек
Стандарт вещания                         : PAL
Цветовое пространство                    : YUV
Субдискретизация насыщенности            : 4:2:0
Битовая глубина                          : 8 бит
Тип развёртки                            : Прогрессивная
Бит/(Пиксели*Кадры)                      : 0.197
Размер потока                            : 249 Мбайт (77%)
Default                                  : Да
Forced                                   : Нет
Цветовой диапазон                        : Limited
Основные цвета                           : BT.601 NTSC
Характеристики трансфера                 : BT.601
Коэффициенты матрицы                     : BT.601

Аудио #1
Идентификатор                            : 2
Формат                                   : AC-3
Формат/Информация                        : Audio Coding 3
Расширение режима                        : CM (complete main)
Параметр Endianness формата              : Big
Идентификатор кодека                     : A_AC3
Продолжительность                        : 25 м.
Вид битрейта                             : Постоянный
Битрейт                                  : 192 Кбит/сек
Каналы                                   : 2 канала
Расположение каналов                     : Front: L R
Частота                                  : 48,0 КГц
Метод сжатия                             : С потерями
Размер потока                            : 34,7 Мбайт (11%)
Язык                                     : Russian
Default                                  : Да
Forced                                   : Нет

Аудио #2
Идентификатор                            : 3
Формат                                   : AC-3
Формат/Информация                        : Audio Coding 3
Расширение режима                        : CM (complete main)
Параметр Endianness формата              : Big
Идентификатор кодека                     : A_AC3
Продолжительность                        : 25 м.
Вид битрейта                             : Постоянный
Битрейт                                  : 192 Кбит/сек
Каналы                                   : 2 канала
Расположение каналов                     : Front: L R
Частота                                  : 48,0 КГц
Метод сжатия                             : С потерями
Размер потока                            : 34,7 Мбайт (11%)
Язык                                     : Polish
Default                                  : Нет
Forced                                   : Нет
picpicpicpicpic
Для увеличения картинки щелкните мышкой по превью

Этот торрент недоступен для скачивания без регистрации, однако доступен по публичной magnet-ссылке (источники с публичных трекеров). Перед использованием ссылки прочтите, пожалуйста Пользовательское соглашение, а также как можно дольше оставайтесь на раздаче! Для того, чтобы скачать сам торрент-файл (который видит больше источников), а также для того, чтобы поблагодарить релизера, вам необходимо зарегистрироваться. Если регистрироваться лень - вы можете также попробовать скачать релиз по нашим партнерским ссылкам ниже. Кроме того, зарегистрированным пользователям не показывается всплывающая реклама при скачивании.

[underverse.me].t76097.torrent
Трекер: Зарегистрирован   [ 25.12.2016 11:47 ]  

Статус: проверено (by makkol at 25.12.2016 11:48)
Поблагодарили: пока никто не поблагодарил...
Тип торрента: публичный - доступные источники с открытых трекеров: 
Размер: 4,42 GB (занимает 1,01 DVDR, для записи нужно 2 болванки DVDR/RW)
 
 

Яндекс.Метрика powered by Sphinx


В Н И М А Н И Е
Сайт не распространяет и не хранит электронные версии произведений, а лишь бесплатно и без коммерческой выгоды (не требуя взамен платы,
SMS и т.д.) предоставляет доступ к создаваемому пользователями каталогу ссылок на торрент-файлы, которые содержат только списки хеш-сумм.
Убедительная просьба с жалобами обращаться напрямую к пользователю, разместившему торрент файл.

Вверх