Loading...
Error

(Rock, Alternative Rock) Чиж & Co - Бомбардировщики (1997) [FLAC (Tracks+.CUE), Lossless]

Статистика раздачи
Размер:  355 MB   |    Зарегистрирован:  1 год 7 месяцев   |    Скачан:  4 раза
Сидов:  1  |  0 KB/s  ]   Личеров:  0  |  0 KB/s  ]

* - сиды/пиры с внешних источников

   
 
Автор Сообщение

Бишеп Пол:Муж

28-Янв-2017 14:41

Чиж & Co - Бомбардировщики

Жанр: Rock, Alternative Rock
Год выпуска: 1997
Источник: CD
Производитель диска: Союз - SZ0841-97
Аудиокодек: FLAC
Тип рипа: Tracks+.CUE
Битрейт аудио: lossless
Продолжительность: 00:57:32


Треклист:
01. Тучи над городом встали
02. Под звёздами Балканскими
03. На поле танки грохотали
04. Бомбардировщики
05. Партизанская борода
06. Жёлые листья
07. Летят перелётные птицы
08. Ленинградские мосты
09. Жёлтый дождь
10. Нейлоновое сердце
11. Есть!
12. Наши любимые
13. Осень

Код:

Exact Audio Copy V1.0 beta 3 from 29. August 2011

EAC extraction logfile from 10. November 2013, 12:32

Чиж & Co / Бомбардировщики

Used drive  : Optiarc DVD RW AD-5260S   Adapter: 0  ID: 1

Read mode               : Secure
Utilize accurate stream : Yes
Defeat audio cache      : Yes
Make use of C2 pointers : No

Read offset correction                      : 48
Overread into Lead-In and Lead-Out          : No
Fill up missing offset samples with silence : Yes
Delete leading and trailing silent blocks   : No
Null samples used in CRC calculations       : Yes
Used interface                              : Native Win32 interface for Win NT & 2000
Gap handling                                : Appended to previous track

Used output format              : User Defined Encoder
Selected bitrate                : 128 kBit/s
Quality                         : High
Add ID3 tag                     : No
Command line compressor         : C:\Program Files\Exact Audio Copy\FLAC\FLAC.EXE
Additional command line options : -V -8 -T "Genre=%genre%" -T "Artist=%artist%" -T "Title=%title%" -T "Album=%albumtitle%" -T "Date=%year%" -T "Tracknumber=%tracknr%" -T "Comment=%comment%" %source%

TOC of the extracted CD

     Track |   Start  |  Length  | Start sector | End sector
    ---------------------------------------------------------
        1  |  0:00.00 |  3:17.57 |         0    |    14831   
        2  |  3:17.57 |  3:45.17 |     14832    |    31723   
        3  |  7:02.74 |  3:46.04 |     31724    |    48677   
        4  | 10:49.03 |  4:43.47 |     48678    |    69949   
        5  | 15:32.50 |  4:27.38 |     69950    |    90012   
        6  | 20:00.13 |  4:24.60 |     90013    |   109872   
        7  | 24:24.73 |  4:43.41 |    109873    |   131138   
        8  | 29:08.39 |  4:36.72 |    131139    |   151910   
        9  | 33:45.36 |  5:36.04 |    151911    |   177114   
       10  | 39:21.40 |  3:50.68 |    177115    |   194432   
       11  | 43:12.33 |  4:32.08 |    194433    |   214840   
       12  | 47:44.41 |  5:57.51 |    214841    |   241666   
       13  | 53:42.17 |  3:52.00 |    241667    |   259066   

Track  1

     Filename G:\My rip\01. Тучи над городом встали.wav

     Pre-gap length  0:00:02.00

     Peak level 100.0 %
     Extraction speed 2.2 X
     Track quality 100.0 %
     Test CRC DBDC4EA5
     Copy CRC DBDC4EA5
     Accurately ripped (confidence 1)  [9D58058D]  (AR v1)
     Copy OK

Track  2

     Filename G:\My rip\02. Под звёздами Балканскими.wav

     Pre-gap length  0:00:01.74

     Peak level 100.0 %
     Extraction speed 2.6 X
     Track quality 100.0 %
     Test CRC F66296BA
     Copy CRC F66296BA
     Accurately ripped (confidence 1)  [200ADB6A]  (AR v1)
     Copy OK

Track  3

     Filename G:\My rip\03. На поле танки грохотали.wav

     Pre-gap length  0:00:01.74

     Peak level 100.0 %
     Extraction speed 2.8 X
     Track quality 100.0 %
     Test CRC 8F962536
     Copy CRC 8F962536
     Accurately ripped (confidence 1)  [F51C87F3]  (AR v1)
     Copy OK

Track  4

     Filename G:\My rip\04. Бомбардировщики.wav

     Pre-gap length  0:00:01.74

     Peak level 100.0 %
     Extraction speed 3.1 X
     Track quality 100.0 %
     Test CRC 189E1BBB
     Copy CRC 189E1BBB
     Accurately ripped (confidence 1)  [0F401AFE]  (AR v1)
     Copy OK

Track  5

     Filename G:\My rip\05. Партизанская борода.wav

     Pre-gap length  0:00:01.74

     Peak level 100.0 %
     Extraction speed 3.3 X
     Track quality 100.0 %
     Test CRC 0A25198F
     Copy CRC 0A25198F
     Accurately ripped (confidence 1)  [EEA5CA5A]  (AR v1)
     Copy OK

Track  6

     Filename G:\My rip\06. Жёлые листья.wav

     Pre-gap length  0:00:01.74

     Peak level 100.0 %
     Extraction speed 3.5 X
     Track quality 100.0 %
     Test CRC 0C18BE64
     Copy CRC 0C18BE64
     Accurately ripped (confidence 1)  [371B0407]  (AR v1)
     Copy OK

Track  7

     Filename G:\My rip\07. Летят перелётные птицы.wav

     Pre-gap length  0:00:01.74

     Peak level 100.0 %
     Extraction speed 3.3 X
     Track quality 99.9 %
     Test CRC 801987D9
     Copy CRC 801987D9
     Accurately ripped (confidence 1)  [B05EC5A0]  (AR v1)
     Copy OK

Track  8

     Filename G:\My rip\08. Ленинградские мосты.wav

     Pre-gap length  0:00:01.74

     Peak level 100.0 %
     Extraction speed 3.9 X
     Track quality 100.0 %
     Test CRC DA23828B
     Copy CRC DA23828B
     Accurately ripped (confidence 1)  [8B5EE6F8]  (AR v1)
     Copy OK

Track  9

     Filename G:\My rip\09. Жёлтый дождь.wav

     Pre-gap length  0:00:01.74

     Peak level 100.0 %
     Extraction speed 4.3 X
     Track quality 100.0 %
     Test CRC D49FF292
     Copy CRC D49FF292
     Accurately ripped (confidence 1)  [F33F8B06]  (AR v1)
     Copy OK

Track 10

     Filename G:\My rip\10. Нейлоновое сердце.wav

     Pre-gap length  0:00:01.74

     Peak level 100.0 %
     Extraction speed 4.2 X
     Track quality 100.0 %
     Test CRC E9233689
     Copy CRC E9233689
     Accurately ripped (confidence 1)  [C2278A2E]  (AR v1)
     Copy OK

Track 11

     Filename G:\My rip\11. Есть!.wav

     Pre-gap length  0:00:01.74

     Peak level 100.0 %
     Extraction speed 4.5 X
     Track quality 100.0 %
     Test CRC 616FC614
     Copy CRC 616FC614
     Accurately ripped (confidence 1)  [2FEE2BC6]  (AR v1)
     Copy OK

Track 12

     Filename G:\My rip\12. Наши любимые.wav

     Pre-gap length  0:00:01.74

     Peak level 100.0 %
     Extraction speed 4.8 X
     Track quality 100.0 %
     Test CRC 82352E05
     Copy CRC 82352E05
     Accurately ripped (confidence 1)  [73551746]  (AR v1)
     Copy OK

Track 13

     Filename G:\My rip\13. Осень.wav

     Pre-gap length  0:00:01.74

     Peak level 100.0 %
     Extraction speed 4.7 X
     Track quality 100.0 %
     Test CRC 763D11DC
     Copy CRC 763D11DC
     Accurately ripped (confidence 1)  [563ECD2B]  (AR v1)
     Copy OK

All tracks accurately ripped

No errors occurred

End of status report

==== Log checksum DE5D2EDDCCD9744E4A6D3E3D6D922B4D1D0C39D9386189431666BCB0C072D7E3 ====

Код:

REM GENRE Rock
REM DATE 1997
REM DISCID AC0D7E0D
REM COMMENT "ExactAudioCopy v1.0b3"
PERFORMER "Чиж & Co"
TITLE "Бомбардировщики"
FILE "01. Тучи над городом встали.wav" WAVE
  TRACK 01 AUDIO
    TITLE "Тучи над городом встали"
    PERFORMER "Чиж & Co"
    INDEX 01 00:00:00
  TRACK 02 AUDIO
    TITLE "Под звёздами Балканскими"
    PERFORMER "Чиж & Co"
    INDEX 00 03:15:58
FILE "02. Под звёздами Балканскими.wav" WAVE
    INDEX 01 00:00:00
  TRACK 03 AUDIO
    TITLE "На поле танки грохотали"
    PERFORMER "Чиж & Co"
    INDEX 00 03:43:18
FILE "03. На поле танки грохотали.wav" WAVE
    INDEX 01 00:00:00
  TRACK 04 AUDIO
    TITLE "Бомбардировщики"
    PERFORMER "Чиж & Co"
    INDEX 00 03:44:05
FILE "04. Бомбардировщики.wav" WAVE
    INDEX 01 00:00:00
  TRACK 05 AUDIO
    TITLE "Партизанская борода"
    PERFORMER "Чиж & Co"
    INDEX 00 04:41:48
FILE "05. Партизанская борода.wav" WAVE
    INDEX 01 00:00:00
  TRACK 06 AUDIO
    TITLE "Жёлые листья"
    PERFORMER "Чиж & Co"
    INDEX 00 04:25:39
FILE "06. Жёлые листья.wav" WAVE
    INDEX 01 00:00:00
  TRACK 07 AUDIO
    TITLE "Летят перелётные птицы"
    PERFORMER "Чиж & Co"
    INDEX 00 04:22:61
FILE "07. Летят перелётные птицы.wav" WAVE
    INDEX 01 00:00:00
  TRACK 08 AUDIO
    TITLE "Ленинградские мосты"
    PERFORMER "Чиж & Co"
    INDEX 00 04:41:42
FILE "08. Ленинградские мосты.wav" WAVE
    INDEX 01 00:00:00
  TRACK 09 AUDIO
    TITLE "Жёлтый дождь"
    PERFORMER "Чиж & Co"
    INDEX 00 04:34:73
FILE "09. Жёлтый дождь.wav" WAVE
    INDEX 01 00:00:00
  TRACK 10 AUDIO
    TITLE "Нейлоновое сердце"
    PERFORMER "Чиж & Co"
    INDEX 00 05:34:05
FILE "10. Нейлоновое сердце.wav" WAVE
    INDEX 01 00:00:00
  TRACK 11 AUDIO
    TITLE "Есть!"
    PERFORMER "Чиж & Co"
    INDEX 00 03:48:69
FILE "11. Есть!.wav" WAVE
    INDEX 01 00:00:00
  TRACK 12 AUDIO
    TITLE "Наши любимые"
    PERFORMER "Чиж & Co"
    INDEX 00 04:30:09
FILE "12. Наши любимые.wav" WAVE
    INDEX 01 00:00:00
  TRACK 13 AUDIO
    TITLE "Осень"
    PERFORMER "Чиж & Co"
    INDEX 00 05:55:52
FILE "13. Осень.wav" WAVE
    INDEX 01 00:00:00

Этот торрент недоступен для скачивания без регистрации, однако доступен по публичной magnet-ссылке (источники с публичных трекеров). Перед использованием ссылки прочтите, пожалуйста Пользовательское соглашение, а также как можно дольше оставайтесь на раздаче! Для того, чтобы скачать сам торрент-файл (который видит больше источников), а также для того, чтобы поблагодарить релизера, вам необходимо зарегистрироваться. Если регистрироваться лень - вы можете также попробовать скачать релиз по нашим партнерским ссылкам ниже. Кроме того, зарегистрированным пользователям не показывается всплывающая реклама при скачивании.

[underverse.me].t77631.torrent
Трекер: Зарегистрирован   [ 28.01.2017 14:41 ]  

Статус: проверено (by Бишеп at 28.01.2017 14:43)
Поблагодарили: пока никто не поблагодарил...
Тип торрента: публичный - доступные источники с открытых трекеров: 
Размер: 355 MB (занимает 0,08 DVDR, для записи нужно 1 болванка DVDR/RW)
 
 
Похожие темы
Форум Тема Автор Торрент Отв. Посл. сооб.
Зарубежный Punk, Hardcore, Grunge, Alternative (Rock, Alternative, Soft rock) Bertrand Cantat - Amor Fati (2017) [MP3, 320 kbps CBR] Darkferse
6 | 0

0 | 404

2

07.12.2017 23:28

Отечественный Punk, Grunge, Alternative (Rock, Alternative Rock) Ю-Питер - Гудгора (2015) [MP3, 320 kbps] terra07
23 | 0

0 | 1236

13

02.03.2015 20:48

Cборники (Rock, Alternative, Hard Rock, Pop Rock, Classic Rock) VA - Rock Road Trip: The Ultimate Collection (5CD) (2018) [MP3, 320 kbps CBR] 90ytr90
129 | 8

0 | 682

8

29.07.2018 07:19

Зарубежный Punk, Grunge, Alternative (Lossless) (Rock, Alternative Rock, Garage Punk) Oh Sees (Thee Oh Sees) - Orc (2017) [FLAC (Tracks), Lossless] Web Бишеп
9 | 1

0 | 519

1

20.02.2018 19:10

Отечественный Punk, Grunge, Alternative (Lossless) (Rock, Alternative Rock) Алиса - Блок Ада (2015) [FLAC (Image+.CUE), Lossless] Бишеп
10 | 0

0 | 1359

17

19.08.2015 05:45

Отечественный Punk, Grunge, Alternative (Lossless) (Rock, Alternative Rock) ЗОО-Парк - реМАЙК (2000) [FLAC (Image+.Cue), Lossless] Бишеп
5 | 0

0 | 399

2

12.02.2018 06:26

Архив (рок) (Rock, Alternative) Three Days Grace - Three Days Grace (2003) [MP3, 320 kbps] M-i-i-i-ke
0 | 0

1 | 1583

0

17.02.2011 14:46

Архив (рок) (Rock, Alternative) Three Days Grace - One-X (2006) [MP3, 192 kbps] M-i-i-i-ke
0 | 0

2 | 2030

1

17.02.2011 14:46

Архив (рок) (Rock, Alternative) Three Days Grace - Life Starts Now (2009) [MP3, 320 kbps] M-i-i-i-ke
0 | 0

1 | 1485

7

16.06.2011 08:09

Архив (HQ рок) (Rock, Alternative Rock) Алиса - Саботаж (2012) [WAVPack (Image+.CUE), Lossless] Бишеп
0 | 0

1 | 1183

5

25.05.2018 15:49


Яндекс.Метрика powered by Sphinx


В Н И М А Н И Е
Сайт не распространяет и не хранит электронные версии произведений, а лишь бесплатно и без коммерческой выгоды (не требуя взамен платы,
SMS и т.д.) предоставляет доступ к создаваемому пользователями каталогу ссылок на торрент-файлы, которые содержат только списки хеш-сумм.
Убедительная просьба с жалобами обращаться напрямую к пользователю, разместившему торрент файл.

Вверх