Loading...
Error

(Vocal Jazz, Pop, Soul) Rumer - The Magic of Sarah Joyce (2017) [FLAC (Tracks+.CUE), Lossless]

Статистика раздачи
Размер:  433 MB   |    Зарегистрирован:  1 год 5 месяцев   |    Скачан:  3 раза

Полного источника не было: 1 день 3 часа

Сидов:  0  |  0 KB/s  ]   Личеров:  0  |  0 KB/s  ]

* - сиды/пиры с внешних источников

   
 
Автор Сообщение

Бишеп Пол:Муж

18-Фев-2017 09:04

Rumer - The Magic of Sarah Joyce

Жанр: Vocal Jazz, Pop, Soul
Год выпуска: 2017
Источник: CD
Производитель диска: Chinese Dragon Music - SJCD-022-2
Аудиокодек: FLAC
Тип рипа: Tracks+.CUE
Битрейт аудио: lossless
Продолжительность: 01:12:28


Треклист:
01. John Sebastian's Girl (3:52)
02. Aretha (3:17)
03. Welcome Back (3:36)
04. Slow (3:36)
05. Mondo Blu (3:45)
06. Be Nice To Me (3:28)
07. Arthur's Theme (Best That You Can Do) (3:57)
08. Tokyo Ladyboy (3:50)
09. Photographs (3:14)
10. Scarlett (4:02)
11. Dangerous (3:57)
12. Are You There (With Another Girl) (3:15)
13. The Look Of Love (4:18)
14. Walk On By (3:19)
15. Take Me As I Am (3:47)
16. Come To Me High (2:50)
17. Am I Forgiven (3:28)
18. Saving Grace (3:21)
19. Travelin' Boy (3:21)
20. Baby Come Back To Bed (4:13)

Код:

Exact Audio Copy V0.99 prebeta 5 from 4. May 2009

EAC extraction logfile from 6. January 2017, 12:39

Rumer / The Magic of Sarah Joyce

Used drive  : ASUS    DRW-24B5ST   Adapter: 1  ID: 0

Read mode               : Secure
Utilize accurate stream : Yes
Defeat audio cache      : Yes
Make use of C2 pointers : No

Read offset correction                      : 6
Overread into Lead-In and Lead-Out          : No
Fill up missing offset samples with silence : Yes
Delete leading and trailing silent blocks   : No
Null samples used in CRC calculations       : Yes
Used interface                              : Native Win32 interface for Win NT & 2000
Gap handling                                : Appended to previous track

Used output format : Internal WAV Routines
Sample format      : 44.100 Hz; 16 Bit; Stereo

TOC of the extracted CD

     Track |   Start  |  Length  | Start sector | End sector
    ---------------------------------------------------------
        1  |  0:00.00 |  3:52.45 |         0    |    17444   
        2  |  3:52.45 |  3:16.30 |     17445    |    32174   
        3  |  7:09.00 |  3:36.07 |     32175    |    48381   
        4  | 10:45.07 |  3:36.00 |     48382    |    64581   
        5  | 14:21.07 |  3:44.74 |     64582    |    81455   
        6  | 18:06.06 |  3:28.00 |     81456    |    97055   
        7  | 21:34.06 |  3:57.00 |     97056    |   114830   
        8  | 25:31.06 |  3:50.00 |    114831    |   132080   
        9  | 29:21.06 |  3:14.00 |    132081    |   146630   
       10  | 32:35.06 |  4:02.00 |    146631    |   164780   
       11  | 36:37.06 |  3:57.00 |    164781    |   182555   
       12  | 40:34.06 |  3:15.00 |    182556    |   197180   
       13  | 43:49.06 |  4:18.38 |    197181    |   216568   
       14  | 48:07.44 |  3:19.00 |    216569    |   231493   
       15  | 51:26.44 |  3:47.00 |    231494    |   248518   
       16  | 55:13.44 |  2:49.37 |    248519    |   261230   
       17  | 58:03.06 |  3:28.38 |    261231    |   276868   
       18  | 61:31.44 |  3:20.37 |    276869    |   291905   
       19  | 64:52.06 |  3:21.00 |    291906    |   306980   
       20  | 68:13.06 |  4:13.08 |    306981    |   325963   

Track  1

     Filename E:\EAC-CD-NEW\01 - John Sebastian's Girl.wav

     Pre-gap length  0:00:02.00

     Peak level 87.9 %
     Track quality 100.0 %
     Test CRC C7F6CEDF
     Copy CRC C7F6CEDF
     Copy OK

Track  2

     Filename E:\EAC-CD-NEW\02 - Aretha.wav

     Peak level 82.9 %
     Track quality 100.0 %
     Test CRC C55919C1
     Copy CRC C55919C1
     Copy OK

Track  3

     Filename E:\EAC-CD-NEW\03 - Welcome Back.wav

     Peak level 91.1 %
     Track quality 100.0 %
     Test CRC 056ED935
     Copy CRC 056ED935
     Copy OK

Track  4

     Filename E:\EAC-CD-NEW\04 - Slow.wav

     Peak level 83.7 %
     Track quality 100.0 %
     Test CRC 5E6B0C20
     Copy CRC 5E6B0C20
     Copy OK

Track  5

     Filename E:\EAC-CD-NEW\05 - Mondo Blu.wav

     Peak level 96.4 %
     Track quality 100.0 %
     Test CRC 3BF8F1C9
     Copy CRC 3BF8F1C9
     Copy OK

Track  6

     Filename E:\EAC-CD-NEW\06 - Be Nice To Me.wav

     Peak level 91.2 %
     Track quality 100.0 %
     Test CRC 1A2CD217
     Copy CRC 1A2CD217
     Copy OK

Track  7

     Filename E:\EAC-CD-NEW\07 - Arthur's Theme (Best That You Can Do).wav

     Peak level 96.3 %
     Track quality 100.0 %
     Test CRC 92ACD75C
     Copy CRC 92ACD75C
     Copy OK

Track  8

     Filename E:\EAC-CD-NEW\08 - Tokyo Ladyboy.wav

     Peak level 88.1 %
     Track quality 100.0 %
     Test CRC 366E3B6A
     Copy CRC 366E3B6A
     Copy OK

Track  9

     Filename E:\EAC-CD-NEW\09 - Photographs.wav

     Peak level 96.5 %
     Track quality 100.0 %
     Test CRC 047D8891
     Copy CRC 047D8891
     Copy OK

Track 10

     Filename E:\EAC-CD-NEW\10 - Scarlett.wav

     Peak level 96.3 %
     Track quality 100.0 %
     Test CRC 541F9562
     Copy CRC 541F9562
     Copy OK

Track 11

     Filename E:\EAC-CD-NEW\11 - Dangerous.wav

     Peak level 96.5 %
     Track quality 100.0 %
     Test CRC 313CFA82
     Copy CRC 313CFA82
     Copy OK

Track 12

     Filename E:\EAC-CD-NEW\12 - Are You There (With Another Girl).wav

     Peak level 96.4 %
     Track quality 100.0 %
     Test CRC F3C32A61
     Copy CRC F3C32A61
     Copy OK

Track 13

     Filename E:\EAC-CD-NEW\13 - The Look Of Love.wav

     Peak level 96.5 %
     Track quality 100.0 %
     Test CRC B92681AF
     Copy CRC B92681AF
     Copy OK

Track 14

     Filename E:\EAC-CD-NEW\14 - Walk On By.wav

     Peak level 96.4 %
     Track quality 100.0 %
     Test CRC 4B7A8493
     Copy CRC 4B7A8493
     Copy OK

Track 15

     Filename E:\EAC-CD-NEW\15 - Take Me As I Am.wav

     Peak level 80.9 %
     Track quality 100.0 %
     Test CRC EEF34EFF
     Copy CRC EEF34EFF
     Copy OK

Track 16

     Filename E:\EAC-CD-NEW\16 - Come To Me High.wav

     Peak level 79.6 %
     Track quality 100.0 %
     Test CRC 1C70DC66
     Copy CRC 1C70DC66
     Copy OK

Track 17

     Filename E:\EAC-CD-NEW\17 - Am I Forgiven.wav

     Peak level 92.2 %
     Track quality 100.0 %
     Test CRC 00DB26BB
     Copy CRC 00DB26BB
     Copy OK

Track 18

     Filename E:\EAC-CD-NEW\18 - Saving Grace.wav

     Peak level 80.3 %
     Track quality 100.0 %
     Test CRC 291A97ED
     Copy CRC 291A97ED
     Copy OK

Track 19

     Filename E:\EAC-CD-NEW\19 - Travelin' Boy.wav

     Peak level 78.8 %
     Track quality 100.0 %
     Test CRC CBF1DDD4
     Copy CRC CBF1DDD4
     Copy OK

Track 20

     Filename E:\EAC-CD-NEW\20 - Baby Come Back To Bed.wav

     Peak level 79.8 %
     Track quality 100.0 %
     Test CRC 4FD17FFB
     Copy CRC 4FD17FFB
     Copy OK

No errors occurred

End of status report

Код:

REM GENRE Pop
REM DATE 2017
REM DISCID 4910FA14
REM COMMENT "ExactAudioCopy v0.99pb5"
PERFORMER "Rumer"
TITLE "The Magic of Sarah Joyce"
FILE "01 - John Sebastian's Girl.flac" WAVE
  TRACK 01 AUDIO
    TITLE "John Sebastian's Girl"
    PERFORMER "Rumer"
    INDEX 01 00:00:00
FILE "02 - Aretha.flac" WAVE
  TRACK 02 AUDIO
    TITLE "Aretha"
    PERFORMER "Rumer"
    INDEX 01 00:00:00
FILE "03 - Welcome Back.flac" WAVE
  TRACK 03 AUDIO
    TITLE "Welcome Back"
    PERFORMER "Rumer"
    INDEX 01 00:00:00
FILE "04 - Slow.flac" WAVE
  TRACK 04 AUDIO
    TITLE "Slow"
    PERFORMER "Rumer"
    INDEX 01 00:00:00
FILE "05 - Mondo Blu.flac" WAVE
  TRACK 05 AUDIO
    TITLE "Mondo Blu"
    PERFORMER "Rumer"
    INDEX 01 00:00:00
FILE "06 - Be Nice To Me.flac" WAVE
  TRACK 06 AUDIO
    TITLE "Be Nice To Me"
    PERFORMER "Rumer"
    INDEX 01 00:00:00
FILE "07 - Arthur's Theme (Best That You Can Do).flac" WAVE
  TRACK 07 AUDIO
    TITLE "Arthur's Theme (Best That You Can Do)"
    PERFORMER "Rumer"
    INDEX 01 00:00:00
FILE "08 - Tokyo Ladyboy.flac" WAVE
  TRACK 08 AUDIO
    TITLE "Tokyo Ladyboy"
    PERFORMER "Rumer"
    INDEX 01 00:00:00
FILE "09 - Photographs.flac" WAVE
  TRACK 09 AUDIO
    TITLE "Photographs"
    PERFORMER "Rumer"
    INDEX 01 00:00:00
FILE "10 - Scarlett.flac" WAVE
  TRACK 10 AUDIO
    TITLE "Scarlett"
    PERFORMER "Rumer"
    INDEX 01 00:00:00
FILE "11 - Dangerous.flac" WAVE
  TRACK 11 AUDIO
    TITLE "Dangerous"
    PERFORMER "Rumer"
    INDEX 01 00:00:00
FILE "12 - Are You There (With Another Girl).flac" WAVE
  TRACK 12 AUDIO
    TITLE "Are You There (With Another Girl)"
    PERFORMER "Rumer"
    INDEX 01 00:00:00
FILE "13 - The Look Of Love.flac" WAVE
  TRACK 13 AUDIO
    TITLE "The Look Of Love"
    PERFORMER "Rumer"
    INDEX 01 00:00:00
FILE "14 - Walk On By.flac" WAVE
  TRACK 14 AUDIO
    TITLE "Walk On By"
    PERFORMER "Rumer"
    INDEX 01 00:00:00
FILE "15 - Take Me As I Am.flac" WAVE
  TRACK 15 AUDIO
    TITLE "Take Me As I Am"
    PERFORMER "Rumer"
    INDEX 01 00:00:00
FILE "16 - Come To Me High.flac" WAVE
  TRACK 16 AUDIO
    TITLE "Come To Me High"
    PERFORMER "Rumer"
    INDEX 01 00:00:00
FILE "17 - Am I Forgiven.flac" WAVE
  TRACK 17 AUDIO
    TITLE "Am I Forgiven"
    PERFORMER "Rumer"
    INDEX 01 00:00:00
FILE "18 - Saving Grace.flac" WAVE
  TRACK 18 AUDIO
    TITLE "Saving Grace"
    PERFORMER "Rumer"
    INDEX 01 00:00:00
FILE "19 - Travelin' Boy.flac" WAVE
  TRACK 19 AUDIO
    TITLE "Travelin' Boy"
    PERFORMER "Rumer"
    INDEX 01 00:00:00
FILE "20 - Baby Come Back To Bed.flac" WAVE
  TRACK 20 AUDIO
    TITLE "Baby Come Back To Bed"
    PERFORMER "Rumer"
    INDEX 01 00:00:00

Код:

-----------------------

DON'T MODIFY THIS FILE

-----------------------

PERFORMER: auCDtect Task Manager, ver. 1.6.0 RC1 build 1.6.0.1
Copyright (c) 2008-2010 y-soft. All rights reserved
http://y-soft.org

ANALYZER: auCDtect: CD records authenticity detector, version 0.8.2
Copyright (c) 2004 Oleg Berngardt. All rights reserved.
Copyright (c) 2004 Alexander Djourik. All rights reserved.

FILE: 20 - Baby Come Back To Bed.flac
  Size: 25721729 Hash: 01B98335E8CC846FAE0DE0A52C9E4E27 Accuracy: -m0
  Conclusion: CDDA 100%
  Signature: 1FDEE5E04B9794D83516EDBDD151CD5C549EAFC9
FILE: 19 - Travelin' Boy.flac
  Size: 20360864 Hash: 3F187D7AEF502113B5C4E90CED407E2E Accuracy: -m0
  Conclusion: CDDA 100%
  Signature: 8477FAC1AED64D4A309B9BBC7172302CE9668AE0
FILE: 18 - Saving Grace.flac
  Size: 21026929 Hash: 34B7509E01CB4C89E3242936C9DAA13F Accuracy: -m0
  Conclusion: CDDA 100%
  Signature: 0CB027B513470176E55E99DD51CF0AA95DAAFD49
FILE: 17 - Am I Forgiven.flac
  Size: 22684695 Hash: EE2E3256216FEE23D7DA74FC581F2A7D Accuracy: -m0
  Conclusion: CDDA 100%
  Signature: 5B00AC7D3EB37A087C489ACF7477F2289DAD4A0D
FILE: 16 - Come To Me High.flac
  Size: 16938832 Hash: C41957F2BE935725A4405C5817E39143 Accuracy: -m0
  Conclusion: CDDA 100%
  Signature: 5F41350D72C72A8D8374A685D4E03CB9FDF02F5D
FILE: 15 - Take Me As I Am.flac
  Size: 22851574 Hash: 378C514DCC8FF6AC105A425EFF0AFA0D Accuracy: -m0
  Conclusion: CDDA 100%
  Signature: F8100B769508DBABEC3664DE70E6C46792A59E7A
FILE: 14 - Walk On By.flac
  Size: 20227565 Hash: 0785BBC32C552E6179459D1A0E8510F3 Accuracy: -m0
  Conclusion: CDDA 100%
  Signature: 883A1F4363ADF50429CD50F5AA874656343C25E5
FILE: 13 - The Look Of Love.flac
  Size: 24162681 Hash: D4DF9CEA09BC6D9E1E8D6457C6C00B01 Accuracy: -m0
  Conclusion: CDDA 100%
  Signature: 749B85E478250B9827367342613062A340AD8962
FILE: 12 - Are You There (With Another Girl).flac
  Size: 20473279 Hash: B79E5C221AD89B787C6838A561E45BC5 Accuracy: -m0
  Conclusion: CDDA 100%
  Signature: 36D026119C2CABA30424157460AB72706F1BBEB2
FILE: 11 - Dangerous.flac
  Size: 26097237 Hash: 0484A7A83232D388867CF1E7D063B2B5 Accuracy: -m0
  Conclusion: CDDA 100%
  Signature: 5583589A0650F682C7FA460624893DBC5A67FDD0
FILE: 10 - Scarlett.flac
  Size: 25944746 Hash: 828CAFD37944A325F2606A95ECC5D8DC Accuracy: -m0
  Conclusion: CDDA 100%
  Signature: 3CDD92364896587759EEC28A12E92BAEC13B25B5
FILE: 09 - Photographs.flac
  Size: 19838419 Hash: 1FC260FD444FFD9D4112167F045DBF89 Accuracy: -m0
  Conclusion: CDDA 100%
  Signature: D4CCC98C9C5AD5B803C5989B74EBFB8E6CF37787
FILE: 08 - Tokyo Ladyboy.flac
  Size: 25825182 Hash: B3568CF20DC4CF18781F67FCCC442D76 Accuracy: -m0
  Conclusion: CDDA 100%
  Signature: C72A1928CB7021F5B50502CFAF3EECCDDBD87EF5
FILE: 07 - Arthur's Theme (Best That You Can Do).flac
  Size: 24361847 Hash: 194469BE53D53A7A61DEB7DEF374E053 Accuracy: -m0
  Conclusion: CDDA 100%
  Signature: CD04E896728D88FBA99690DC167D139AC7B78238
FILE: 06 - Be Nice To Me.flac
  Size: 20781015 Hash: 8B1E3C5258C921CF506F9741143B62F7 Accuracy: -m0
  Conclusion: CDDA 100%
  Signature: FED4C36AAE6FDF1C1C06F05EF58A11F08646038B
FILE: 05 - Mondo Blu.flac
  Size: 22936742 Hash: 83719DBDD017BDE25496E7F918C6CD01 Accuracy: -m0
  Conclusion: CDDA 100%
  Signature: 00317F80D15FE466321FC27C4ABD6D3F1063AB62
FILE: 04 - Slow.flac
  Size: 20625812 Hash: E22552965966CDEFB1A16A50386EFB03 Accuracy: -m0
  Conclusion: CDDA 100%
  Signature: 269D3D6BD138C7FAB4E7D77F66A2906FCB21CB51
FILE: 03 - Welcome Back.flac
  Size: 21917970 Hash: 551FB6E21DEFB1B61AB6FDA893EF35C5 Accuracy: -m0
  Conclusion: CDDA 100%
  Signature: 86AD42A2CFEEAB17C03DDA615C3B95EFF68E9D90
FILE: 02 - Aretha.flac
  Size: 19828005 Hash: 9AFB2AE3A98414A2D752279F60C6EB0A Accuracy: -m0
  Conclusion: CDDA 100%
  Signature: DABAD87288C08CD89A6A1BD27FE649C66A01DFBF
FILE: 01 - John Sebastian's Girl.flac
  Size: 25072788 Hash: 5202E81EEEF39D648375E1E8C36E3289 Accuracy: -m0
  Conclusion: CDDA 100%
  Signature: 071B390D2EFED64559B0189B8E2081EB5C18EFD4

Этот торрент недоступен для скачивания без регистрации, однако доступен по публичной magnet-ссылке (источники с публичных трекеров). Перед использованием ссылки прочтите, пожалуйста Пользовательское соглашение, а также как можно дольше оставайтесь на раздаче! Для того, чтобы скачать сам торрент-файл (который видит больше источников), а также для того, чтобы поблагодарить релизера, вам необходимо зарегистрироваться. Если регистрироваться лень - вы можете также попробовать скачать релиз по нашим партнерским ссылкам ниже. Кроме того, зарегистрированным пользователям не показывается всплывающая реклама при скачивании.

[underverse.me].t78486.torrent
Трекер: Зарегистрирован   [ 18.02.2017 09:04 ]  

Статус: проверено (by Бишеп at 18.02.2017 09:04)
Поблагодарили: пока никто не поблагодарил...
Тип торрента: публичный - доступные источники с открытых трекеров: 
Размер: 433 MB (занимает 0,1 DVDR, для записи нужно 1 болванка DVDR/RW)
 
 
Похожие темы
Форум Тема Автор Торрент Отв. Посл. сооб.
Jazz (Vocal Jazz, Swing) Nat King Cole - The World of Nat King Cole (2005) [MP3, VBR ~224 kbps] ZondeR
1 | 0

0 | 2602

13

28.04.2012 12:45

Jazz (Vocal Jazz) Diana Krall - Дискография (1993-2017) [MP3, 320 kbps CBR] Darkferse
15 | 6

0 | 1555

9

08.05.2017 18:45

Jazz (Vocal Jazz, Swing) Dean Martin - Swingin With Dino (2002) [MP3, 320 kbps] ZondeR
0 | 0

0 | 1858

7

20.08.2012 19:04

Jazz (Vocal Jazz) Ulita Knaus - Love In This Time (2017) [MP3, 320 kbps CBR] Darkferse
1 | 0

0 | 534

4

05.05.2017 07:52

Jazz (Vocal Jazz) Cecile Messyasz - Theo's Lullaby (2017) [MP3, 320 kbps CBR] Darkferse
1 | 0

0 | 545

4

05.05.2017 07:37

Jazz (Vocal Jazz, Soul) Eleni Naomi - Still I Wait (2017) [MP3, 320 kbps CBR] Darkferse
1 | 0

0 | 593

4

22.05.2017 16:35

Jazz (Vocal Jazz, Pop) Stephanie Hundertmark - Enjoy The View (2017) [MP3, 320 kbps CBR] Darkferse
2 | 0

0 | 600

3

22.05.2017 16:23

Jazz (Vocal Jazz, Pop) Robin Grant & The Standard - Good Girl (2017) [MP3, 320 kbps CBR] Darkferse
1 | 0

0 | 630

5

29.08.2017 09:21

Jazz (Vocal Jazz) Beas - Stolen Diamonds (2017) [MP3, 320 kbps CBR] Darkferse
2 | 0

0 | 631

5

31.05.2017 19:56

Jazz (Vocal Jazz) Stac - Perpetual (2017) [MP3, 320 kbps CBR] Darkferse
1 | 0

0 | 428

3

05.06.2017 20:29


Яндекс.Метрика powered by Sphinx


В Н И М А Н И Е
Сайт не распространяет и не хранит электронные версии произведений, а лишь бесплатно и без коммерческой выгоды (не требуя взамен платы,
SMS и т.д.) предоставляет доступ к создаваемому пользователями каталогу ссылок на торрент-файлы, которые содержат только списки хеш-сумм.
Убедительная просьба с жалобами обращаться напрямую к пользователю, разместившему торрент файл.

Вверх