Loading...
Error

Скандинавский форсаж: Гонки на льду / Borning 2 (Халлвард Браэин) [2016 г., боевик, комедия, BD-Remux] MVO (iTunes) + Original + Sub

Статистика раздачи
Размер:  16,21 GB   |    Зарегистрирован:  1 год 5 месяцев   |    Скачан:  5 раз

Полного источника не было: 8 месяцев

Сидов:  0  |  0 KB/s  ]   Личеров:  0  |  0 KB/s  ]

* - сиды/пиры с внешних источников

   
 
Автор Сообщение

makkol Пол:Муж

27-Фев-2017 12:57

Скандинавский форсаж: Гонки на льду / Børning 2


Год выпуска: 2016
Жанр: боевик, комедия
Производство: Норвегия [Filmkameratene A/S]
Режиссер: Халлвард Браэин
В ролях: Андерс Босмо Кристиансен, Ида Хьюсой, Отто Йесперсен, Свен Нордин, Дженни Скавлан, Хенрик Местад, Йонас Офтебро
Сюжет фильма:
Продолжение фильма 2014 года о приключениях любителей быстрой езды из Норвегии. После событий первого фильма прошли два года, которые Рой и его друзья провели в комфортабельной норвежской тюрьме. Выйдя на свободу, они решают стать законопослушными гражданами. Но возникла проблемка. Грядет новая супергонка, участники которой поедут через всю Скандинавию: от Осло до Мурманска. Дочь Роя хочет в ней участвовать, чем приводит отца в ужас. Он не хочет, чтобы она повторяла его ошибок и пытается ее отговорить от этого безумного плана, а в итоге сам оказывается втянут в эту сумасшедшую поездку…

  • Мировая премьера: 12 октября 2016
  • Российская премьера: 27 апреля 2017


Качество видео: BD-Remux

Продолжительность: 01:37:10
Формат: MKV
Видео: MPEG-4 AVC, 1920x1080 (16:9), 24.000 fps, 19.6 Mbps
Аудио #1: русский, профессиональный многоголосый закадровый (iTunes), AC3 5.1, 48 kHz, 384 kbps
Аудио #2: норвежский, оригинал, AC3 5.1, 48 kHz, 640 kbps
Субтитры: русские, английские вшитые отключаемые

Код:

Формат                                   : Matroska
Версия формата                           : Version 2
Размер файла                             : 14,3 Гбайт
Продолжительность                        : 1 ч. 37 м.
Режим общего битрейта                    : Переменный
Общий поток                              : 21,0 Мбит/сек
Дата кодирования                         : UTC 2017-02-27 06:46:35
Программа кодирования                    : mkvmerge v7.7.0 ('Six Voices') 64bit built on Feb 28 2015 23:39:33
Библиотека кодирования                   : libebml v1.3.1 + libmatroska v1.4.2

Видео
Идентификатор                            : 1
Формат                                   : AVC
Формат/Информация                        : Advanced Video Codec
Профиль формата                          : High@L4.1
Параметр CABAC формата                   : Да
Параметр ReFrames формата                : 4 кадра
Параметр GOP формата                     : M=3, N=24
Идентификатор кодека                     : V_MPEG4/ISO/AVC
Продолжительность                        : 1 ч. 37 м.
Вид битрейта                             : Переменный
Битрейт                                  : 19,6 Мбит/сек
Максимальный битрейт                     : 35,0 Мбит/сек
Ширина                                   : 1920 пикселей
Высота                                   : 1080 пикселей
Соотношение сторон                       : 16:9
Режим частоты кадров                     : Постоянный
Частота кадров                           : 24,000 кадра/сек
Стандарт вещания                         : NTSC
Цветовое пространство                    : YUV
Субдискретизация насыщенности            : 4:2:0
Битовая глубина                          : 8 бит
Тип развёртки                            : Прогрессивная
Бит/(Пиксели*Кадры)                      : 0.393
Размер потока                            : 13,3 Гбайт (93%)
Язык                                     : English
Default                                  : Нет
Forced                                   : Нет
Цветовой диапазон                        : Limited
Основные цвета                           : BT.709
Характеристики трансфера                 : BT.709
Коэффициенты матрицы                     : BT.709

Аудио #1
Идентификатор                            : 2
Формат                                   : AC-3
Формат/Информация                        : Audio Coding 3
Расширение режима                        : CM (complete main)
Параметр Endianness формата              : Big
Идентификатор кодека                     : A_AC3
Продолжительность                        : 1 ч. 37 м.
Вид битрейта                             : Постоянный
Битрейт                                  : 384 Кбит/сек
Каналы                                   : 6 каналов
Расположение каналов                     : Front: L C R, Side: L R, LFE
Частота                                  : 48,0 КГц
Частота кадров                           : 31,250 кадров/сек (1536 spf)
Битовая глубина                          : 16 бит
Метод сжатия                             : С потерями
Размер потока                            : 267 Мбайт (2%)
Заголовок                                : Многоголосый закадровый (iTunes)
Язык                                     : Russian
Default                                  : Да
Forced                                   : Нет

Аудио #2
Идентификатор                            : 3
Формат                                   : AC-3
Формат/Информация                        : Audio Coding 3
Расширение режима                        : CM (complete main)
Параметр Endianness формата              : Big
Идентификатор кодека                     : A_AC3
Продолжительность                        : 1 ч. 37 м.
Вид битрейта                             : Постоянный
Битрейт                                  : 640 Кбит/сек
Каналы                                   : 6 каналов
Расположение каналов                     : Front: L C R, Side: L R, LFE
Частота                                  : 48,0 КГц
Частота кадров                           : 31,250 кадров/сек (1536 spf)
Битовая глубина                          : 16 бит
Метод сжатия                             : С потерями
Размер потока                            : 445 Мбайт (3%)
Язык                                     : Norwegian
Default                                  : Нет
Forced                                   : Нет

Текст #1
Идентификатор                            : 4
Формат                                   : UTF-8
Идентификатор кодека                     : S_TEXT/UTF8
Идентификатор кодека/Информация          : UTF-8 Plain Text
Язык                                     : Russian
Default                                  : Нет
Forced                                   : Нет

Текст #2
Идентификатор                            : 5
Формат                                   : UTF-8
Идентификатор кодека                     : S_TEXT/UTF8
Идентификатор кодека/Информация          : UTF-8 Plain Text
Язык                                     : English
Default                                  : Нет
Forced                                   : Нет

Меню
00:00:00.000                             : no:00:00:00.000
00:11:53.125                             : no:00:11:53.125
00:27:53.792                             : no:00:27:53.792
00:39:08.333                             : no:00:39:08.333
00:53:40.625                             : no:00:53:40.625
01:07:09.292                             : no:01:07:09.292
01:17:50.083                             : no:01:17:50.083
01:33:06.708                             : no:01:33:06.708
Релиз: NNMClub

picpicpicpicpic
Для увеличения картинки щелкните мышкой по превью

Этот торрент недоступен для скачивания без регистрации, однако доступен по публичной magnet-ссылке (источники с публичных трекеров). Перед использованием ссылки прочтите, пожалуйста Пользовательское соглашение, а также как можно дольше оставайтесь на раздаче! Для того, чтобы скачать сам торрент-файл (который видит больше источников), а также для того, чтобы поблагодарить релизера, вам необходимо зарегистрироваться. Если регистрироваться лень - вы можете также попробовать скачать релиз по нашим партнерским ссылкам ниже. Кроме того, зарегистрированным пользователям не показывается всплывающая реклама при скачивании.

[underverse.me].t78899.torrent
Трекер: Зарегистрирован   [ 27.02.2017 12:57 ]  

Статус: T временная (by makkol at 27.02.2017 12:59)
Поблагодарили: пока никто не поблагодарил...
Тип торрента: публичный - доступные источники с открытых трекеров: 
Размер: 16,21 GB (занимает 3,7 DVDR, для записи нужно 4 болванки DVDR/RW)
 
 
Похожие темы
Форум Тема Автор Торрент Отв. Посл. сооб.
T Зарубежное кино [DVDRip, Low-Res HDRip, и т.д.] Скандинавский форсаж / Borning (Хальвард Брейн) [2014 г., боевик, комедия, HDRip] Dub makkol
9 | 0

0 | 891

48

19.08.2015 23:16

T Зарубежное кино [DVDRip, Low-Res HDRip, и т.д.] Скандинавский форсаж: Гонки на льду / Borning 2 (Халлвард Браэин) [2016 г., боевик, комедия, BDRip] MVO (iTunes) makkol
18 | 0

0 | 977

11

27.02.2017 12:39

T Зарубежное кино [DVDRip, Low-Res HDRip, и т.д.] Скандинавский форсаж: Гонки на льду / Borning 2 (Халлвард Браэин) [2016 г., боевик, комедия, HDRip] VO (Хихидок) 90ytr90
3 | 0

0 | 899

6

28.01.2017 12:57

T Зарубежное кино [DVDRip, Low-Res HDRip, и т.д.] Скандинавский форсаж: Гонки на льду / Borning 2 (Халлвард Браэин) [2016 г., боевик, комедия, HDRip] MVO (КОЛОБОК) 90ytr90
7 | 0

0 | 1075

10

28.01.2017 15:45

T Зарубежное кино [HDDVDRip / BDRip / WEB-DL / HDTV 1080/720р] Скандинавский форсаж: Гонки на льду / Borning 2 (Халлвард Браэин ) [2016 г., боевик, комедия, BDRip 720p] MVO (iTunes) + Original + Sub makkol
2 | 0

0 | 883

6

27.02.2017 12:48

T Зарубежное кино [HDDVDRip / BDRip / WEB-DL / HDTV 1080/720р] Скандинавский форсаж: Гонки на льду / Borning 2 (Халлвард Браэин) [2016 г., боевик, комедия, BDRip 720p] MVO (КОЛОБОК) 90ytr90
3 | 0

0 | 892

6

29.01.2017 16:10

T Зарубежное кино [HDDVDRip / BDRip / WEB-DL / HDTV 1080/720р] Скандинавский форсаж: Гонки на льду / Borning 2 (Халлвард Браэин) [2016 г., боевик, комедия, BDRip 1080p] MVO (iTunes) + Original + Sub makkol
1 | 0

0 | 946

4

27.02.2017 21:30

T Архив (зарубежное кино высокого качества) Скандинавский форсаж / Borning (Хальвард Брейн) [2014 г., боевик, комедия, BDRip 720p] Dub + Original makkol
0 | 0

1 | 781

4

31.01.2018 17:26

T Архив (зарубежное кино высокого качества) Скандинавский форсаж / Borning (Хальвард Брейн) [2014 г., боевик, комедия, BDRip 1080p] Dub + Original makkol
0 | 0

1 | 1124

21

25.05.2018 15:11


Яндекс.Метрика powered by Sphinx


В Н И М А Н И Е
Сайт не распространяет и не хранит электронные версии произведений, а лишь бесплатно и без коммерческой выгоды (не требуя взамен платы,
SMS и т.д.) предоставляет доступ к создаваемому пользователями каталогу ссылок на торрент-файлы, которые содержат только списки хеш-сумм.
Убедительная просьба с жалобами обращаться напрямую к пользователю, разместившему торрент файл.

Вверх