Loading...
Error

Охота на дикарей / Hunt for the Wilderpeople (Тайка Вайтити) [2016 г., драма, комедия, приключения, BD-Remux] MVO + Original + Sub

Статистика раздачи
Размер:  26,74 GB   |    Зарегистрирован:  1 год 4 месяца   |    Скачан:  3 раза

Полного источника не было: 1 год 2 месяца

Сидов:  0  |  0 KB/s  ]   Личеров:  0  |  0 KB/s  ]

* - сиды/пиры с внешних источников

   
 
Автор Сообщение

makkol Пол:Муж

26-Мар-2017 10:19

Охота на дикарей / Hunt for the Wilderpeople


Год выпуска: 2016
Жанр: драма, комедия, приключения
Производство: Новая Зеландия [Curious Film, Defender Films, Piki Films]
Режиссер: Тайка Вайтити
В ролях: Сэм Нилл, Джулиан Деннисон, Рима Те Вьята, Рэйчел Хаус, Tioreore Ngatai-Melbourne, Оскар Кайтли, Стэн Уокер, Майк Миноуг, Коэн Холлоуэй, Риз Дэрби
Сюжет фильма:
Рикки Бэйкер — упитанный городской хулиган. Сотрудница социальной службы Пола отвозит подростка в сельскую местность, где живёт единственная готовая принять его семья — Белла и её нелюдимый муж Гек. Когда Белла умирает и социальная защита собирается забрать Рикки, тот убегает в леса. Гек отправляется за ним. Сумасбродная Пола убеждена, что странный Гек слетел с катушек из-за смерти жены и похитил подростка. Она развязывает общенациональную охоту на мальчика и его «совратителя».

  • Мировая премьера: 22 января 2016


Качество видео: BD-Remux

Продолжительность: 01:40:59
Формат: MKV
Видео: MPEG-4 AVC, 1920x1080 (16:9), 24.000 fps, 35.0 Mbps
Аудио #1: русский, профессиональный многоголосый закадровый (лицензия Blu-ray CEE), AC3 5.1, 48 kHz, 640 kbps
Аудио #2: английский, оригинал, DTS-HD MA 5.1, 48 kHz, 3840 kbps / 1509 kbps
Субтитры: русские (Forsed, Full), английские (Full, SDH) вшитые отключаемые

Код:

Формат                                   : Matroska
Версия формата                           : Version 4 / Version 2
Размер файла                             : 26,7 Гбайт
Продолжительность                        : 1 ч. 40 м.
Общий поток                              : 37,9 Мбит/сек
Дата кодирования                         : UTC 2017-03-26 06:50:37
Программа кодирования                    : mkvmerge v8.3.0 ('Over the Horizon') 64bit
Библиотека кодирования                   : libebml v1.3.1 + libmatroska v1.4.2
Обложка                                  : Yes
Attachments                              : cover.jpg

Видео
Идентификатор                            : 1
Формат                                   : AVC
Формат/Информация                        : Advanced Video Codec
Профиль формата                          : High@L4.1
Параметр CABAC формата                   : Да
Параметр ReFrames формата                : 4 кадра
Параметр GOP формата                     : M=3, N=24
Идентификатор кодека                     : V_MPEG4/ISO/AVC
Продолжительность                        : 1 ч. 40 м.
Вид битрейта                             : Постоянный
Битрейт                                  : 35,0 Мбит/сек
Ширина                                   : 1920 пикселей
Высота                                   : 1080 пикселей
Соотношение сторон                       : 16:9
Режим частоты кадров                     : Постоянный
Частота кадров                           : 24,000 кадра/сек
Стандарт вещания                         : NTSC
Цветовое пространство                    : YUV
Субдискретизация насыщенности            : 4:2:0
Битовая глубина                          : 8 бит
Тип развёртки                            : Прогрессивная
Бит/(Пиксели*Кадры)                      : 0.703
Размер потока                            : 23,6 Гбайт (88%)
Заголовок                                : build by ***селезень***
Язык                                     : English
Default                                  : Да
Forced                                   : Нет
Цветовой диапазон                        : Limited
Основные цвета                           : BT.709
Характеристики трансфера                 : BT.709
Коэффициенты матрицы                     : BT.709

Аудио #1
Идентификатор                            : 2
Формат                                   : AC-3
Формат/Информация                        : Audio Coding 3
Расширение режима                        : CM (complete main)
Параметр Endianness формата              : Big
Идентификатор кодека                     : A_AC3
Продолжительность                        : 1 ч. 40 м.
Вид битрейта                             : Постоянный
Битрейт                                  : 640 Кбит/сек
Каналы                                   : 6 каналов
Расположение каналов                     : Front: L C R, Side: L R, LFE
Частота                                  : 48,0 КГц
Частота кадров                           : 31,250 кадров/сек (1536 spf)
Битовая глубина                          : 16 бит
Метод сжатия                             : С потерями
Размер потока                            : 462 Мбайт (2%)
Заголовок                                : MVO [License]
Язык                                     : Russian
Default                                  : Да
Forced                                   : Нет

Аудио #2
Идентификатор                            : 3
Формат                                   : DTS
Формат/Информация                        : Digital Theater Systems
Профиль формата                          : MA / Core
Режим                                    : 16
Параметр Endianness формата              : Big
Идентификатор кодека                     : A_DTS
Продолжительность                        : 1 ч. 40 м.
Вид битрейта                             : Переменный / Постоянный
Битрейт                                  : 3840 Кбит/сек / 1509 Кбит/сек
Каналы                                   : 6 каналов
Расположение каналов                     : Front: L C R, Side: L R, LFE
Частота                                  : 48,0 КГц
Частота кадров                           : 93,750 кадра/сек (512 spf)
Битовая глубина                          : 24 бит
Метод сжатия                             : Без потерь / Lossy
Размер потока                            : 2,73 Гбайт (10%)
Заголовок                                : Original
Язык                                     : English
Default                                  : Нет
Forced                                   : Нет

Текст #1
Идентификатор                            : 4
Формат                                   : UTF-8
Идентификатор кодека                     : S_TEXT/UTF8
Идентификатор кодека/Информация          : UTF-8 Plain Text
Продолжительность                        : 1 ч. 16 м.
Битрейт                                  : 1 бит/сек
Count of elements                        : 11
Размер потока                            : 598 байт (0%)
Заголовок                                : Forsed
Язык                                     : Russian
Default                                  : Да
Forced                                   : Нет

Текст #2
Идентификатор                            : 5
Формат                                   : UTF-8
Идентификатор кодека                     : S_TEXT/UTF8
Идентификатор кодека/Информация          : UTF-8 Plain Text
Продолжительность                        : 1 ч. 35 м.
Битрейт                                  : 122 бит/сек
Count of elements                        : 1506
Размер потока                            : 85,8 Кбайт (0%)
Заголовок                                : Full
Язык                                     : Russian
Default                                  : Нет
Forced                                   : Нет

Текст #3
Идентификатор                            : 6
Формат                                   : UTF-8
Идентификатор кодека                     : S_TEXT/UTF8
Идентификатор кодека/Информация          : UTF-8 Plain Text
Продолжительность                        : 1 ч. 37 м.
Битрейт                                  : 56 бит/сек
Count of elements                        : 1192
Размер потока                            : 40,2 Кбайт (0%)
Заголовок                                : Full
Язык                                     : English
Default                                  : Нет
Forced                                   : Нет

Текст #4
Идентификатор                            : 7
Формат                                   : UTF-8
Идентификатор кодека                     : S_TEXT/UTF8
Идентификатор кодека/Информация          : UTF-8 Plain Text
Продолжительность                        : 1 ч. 39 м.
Битрейт                                  : 66 бит/сек
Count of elements                        : 1555
Размер потока                            : 48,2 Кбайт (0%)
Заголовок                                : SDH
Язык                                     : English
Default                                  : Нет
Forced                                   : Нет

Меню
00:00:00.000                             : en:00:00:00.000
00:06:04.792                             : en:00:06:04.792
00:16:58.917                             : en:00:16:58.917
00:25:29.375                             : en:00:25:29.375
00:36:20.042                             : en:00:36:20.042
00:43:50.958                             : en:00:43:50.958
00:51:02.833                             : en:00:51:02.833
00:59:52.167                             : en:00:59:52.167
01:08:52.208                             : en:01:08:52.208
01:18:39.583                             : en:01:18:39.583
01:29:48.417                             : en:01:29:48.417
01:36:13.625                             : en:01:36:13.625
Релиз:

picpicpicpicpic
Для увеличения картинки щелкните мышкой по превью

Этот торрент недоступен для скачивания без регистрации, однако доступен по публичной magnet-ссылке (источники с публичных трекеров). Перед использованием ссылки прочтите, пожалуйста Пользовательское соглашение, а также как можно дольше оставайтесь на раздаче! Для того, чтобы скачать сам торрент-файл (который видит больше источников), а также для того, чтобы поблагодарить релизера, вам необходимо зарегистрироваться. Если регистрироваться лень - вы можете также попробовать скачать релиз по нашим партнерским ссылкам ниже. Кроме того, зарегистрированным пользователям не показывается всплывающая реклама при скачивании.

[underverse.me].t80254.torrent
Трекер: Зарегистрирован   [ 26.03.2017 10:19 ]  

Статус: проверено (by makkol at 26.03.2017 10:20)
Поблагодарили: пока никто не поблагодарил...
Тип торрента: публичный - доступные источники с открытых трекеров: 
Размер: 26,74 GB (занимает 6,11 DVDR, для записи нужно 7 болванок DVDR/RW)
 
 
Похожие темы
Форум Тема Автор Торрент Отв. Посл. сооб.
* Зарубежное кино [DVDRip, Low-Res HDRip, и т.д.] Охота на дикарей / Hunt for the Wilderpeople (Тайка Вайтити) [2016 г., драма, комедия, приключения, BDRip] MVO + Original (Eng) 90ytr90
6 | 2

0 | 187

5

05.03.2018 15:09

T Зарубежное кино [DVDRip, Low-Res HDRip, и т.д.] Охота на дикарей / Hunt for the Wilderpeople (Тайка Вайтити) [2016 г., драма, комедия, приключения, HDRip] DVO makkol
1 | 0

0 | 836

12

01.10.2016 14:03

Зарубежное кино [DVDRip, Low-Res HDRip, и т.д.] Охота на дикарей / Hunt for the Wilderpeople (Тайка Вайтити) [2016 г., драма, комедия, приключения, BDRip] MVO makkol
6 | 0

0 | 826

14

25.03.2017 21:52

Зарубежное кино [DVDRip, Low-Res HDRip, и т.д.] Охота на дикарей / Hunt for the Wilderpeople (Тайка Вайтити / Taika Waititi) [2016 г., приключения, драма, комедия, BDRip-AVC] MVO + Sub (Rus, Eng) 90ytr90
6 | 2

0 | 553

3

28.03.2017 16:50

Зарубежное кино [DVDRip, Low-Res HDRip, и т.д.] Охота на дикарей / Hunt for the Wilderpeople (Тайка Вайтити / Taika Waititi) [2016 г., приключения, драма, комедия, BDRip-AVC] MVO + Original (Eng) + Sub (Rus, Eng) 90ytr90
1 | 0

0 | 593

5

28.03.2017 17:04

* Зарубежное кино [DVD / HDDVD / BD / Remux] Охота на дикарей / Hunt for the Wilderpeople (Тайка Вайтити / Taika Waititi) [2016 г., приключения, драма, комедия, BD CEE 1080p] MVO 90ytr90
0 | 1

0 | 161

0

05.03.2018 15:07

* Зарубежное кино [HDDVDRip / BDRip / WEB-DL / HDTV 1080/720р] Охота на дикарей / Hunt for the Wilderpeople (Тайка Вайтити / Taika Waititi) [2016 г., драма, комедия, приключения, BDRip 1080p] MVO + Original (Eng) + Sub (Rus, Eng) 90ytr90
3 | 0

0 | 177

0

05.03.2018 15:09

Зарубежное кино [HDDVDRip / BDRip / WEB-DL / HDTV 1080/720р] Охота на дикарей / Hunt for the Wilderpeople (Тайка Вайтити) [2016 г., драма, комедия, приключения, BDRip 720p] MVO + Original + Sub makkol
3 | 0

0 | 699

5

26.03.2017 09:59

Зарубежное кино [HDDVDRip / BDRip / WEB-DL / HDTV 1080/720р] Охота на дикарей / Hunt for the Wilderpeople (Тайка Вайтити) [2016 г., драма, комедия, приключения, BDRip 1080p] MVO + Original + Sub makkol
1 | 0

0 | 595

4

26.03.2017 10:09

T Архив (зарубежное кино высокого качества) Охота на дикарей / Hunt for the Wilderpeople (Тайка Вайтити) [2016 г., драма, комедия, приключения, BDRip 720p] DVO makkol
0 | 0

1 | 683

12

31.01.2018 18:00


Яндекс.Метрика powered by Sphinx


В Н И М А Н И Е
Сайт не распространяет и не хранит электронные версии произведений, а лишь бесплатно и без коммерческой выгоды (не требуя взамен платы,
SMS и т.д.) предоставляет доступ к создаваемому пользователями каталогу ссылок на торрент-файлы, которые содержат только списки хеш-сумм.
Убедительная просьба с жалобами обращаться напрямую к пользователю, разместившему торрент файл.

Вверх