Loading...
Error

(Punk Rock) Адаптация - Radio Resistance (2017) [FLAC (Image+.CUE), lossless]

Статистика раздачи
Размер:  349 MB   |    Зарегистрирован:  1 год 5 месяцев   |    Скачан:  1 раз

Полного источника не было: 3 месяца 22 дня

Сидов:  0  |  0 KB/s  ]   Личеров:  0  |  0 KB/s  ]

* - сиды/пиры с внешних источников

   
 
Автор Сообщение

Darkferse Пол:Жен

05-Апр-2017 18:02

Адаптация - Radio Resistance

Жанр: Punk Rock
Год выпуска: 2017
Источник: CD
Производитель: Выргород - CDWYR-179
Аудиокодек: FLAC
Тип рипа: Image+.CUE
Битрейт: lossless
Продолжительность: 00:38:15

Треклист:

01. Живой (03:59)
02. Бищара-рай (04:08)
03. Мой город будет стоять (03:46)
04. Маяк над соломенным городом (03:13)
05. Панки, хой! (03:10)
06. За измену Родине (04:20)
07. Будущего нет (04:41)
08. Про дома (02:34)
09. Памяти Курта Кобейна (02:05)
10. Встретимся (06:23)

Код:

Exact Audio Copy V1.1 from 23. June 2015

Отчёт EAC об извлечении, выполненном 4. апреля 2017, 10:30

Адаптация / Radio Resistance

Дисковод: TEAC    DV-W524GSB   Adapter: 1  ID: 0

Режим чтения                 : Достоверность
Использование точного потока : Да
Отключение кэша аудио        : Да
Использование указателей C2  : Нет

Коррекция смещения при чтении                     : 6
Способность читать области Lead-in и Lead-out     : Нет
Заполнение пропущенных сэмплов тишиной            : Да
Удаление блоков с тишиной в начале и конце        : Нет
При вычислениях CRC использовались нулевые сэмплы : Да
Интерфейс                                         : Встроенный Win32-интерфейс для Win NT/2000

Выходной формат          : Пользовательский кодировщик
Выбранный битрейт        : 128 kBit/s
Качество                 : Высокий
Добавление ID3-тега      : Нет
Утилита сжатия           : C:\Program Files (x86)\FLAC\flac.exe
Дополнительные параметры : -V -8 -T "Date=%year%" -T "Genre=%genre%" %source%

TOC извлечённого CD

     Трек |   Старт  | Длительность | Начальный сектор | Конечный сектор
    ---------------------------------------------------------------------
       1  |  0:00.00 |    3:58.32   |           0      |      17881     
       2  |  3:58.32 |    4:07.60   |       17882      |      36466     
       3  |  8:06.17 |    3:45.49   |       36467      |      53390     
       4  | 11:51.66 |    3:12.68   |       53391      |      67858     
       5  | 15:04.59 |    3:09.56   |       67859      |      82089     
       6  | 18:14.40 |    4:19.29   |       82090      |     101543     
       7  | 22:33.69 |    4:40.22   |      101544      |     122565     
       8  | 27:14.16 |    2:33.04   |      122566      |     134044     
       9  | 29:47.20 |    2:04.53   |      134045      |     143397     
      10  | 31:51.73 |    6:22.59   |      143398      |     172106     

Характеристики диапазона извлечения и сообщения об ошибках

Выбранный диапазон

     Имя файла D:\Desktop\2017 - Radio Resistance\Адаптация - Radio Resistance.wav

     Пиковый уровень 100.0 %
     Скорость извлечения 3.0 X
     Качество диапазона 99.9 %
     CRC теста 41E86C76
     CRC копии 41E86C76
     Копирование... OK

Ошибок не произошло

 
AccurateRip: сводка
 
Трек  1  отсутствует в базе данных
Трек  2  отсутствует в базе данных
Трек  3  отсутствует в базе данных
Трек  4  отсутствует в базе данных
Трек  5  отсутствует в базе данных
Трек  6  отсутствует в базе данных
Трек  7  отсутствует в базе данных
Трек  8  отсутствует в базе данных
Трек  9  отсутствует в базе данных
Трек 10  отсутствует в базе данных
 
Ни одного трека нет в базе AccurateRip

Конец отчёта

==== Контрольная сумма отчёта 7BDD25A211791A39D362A170D1BA935AE53E4EAA1DBF44A81E33B37AC5309D5E ====

Код:

REM GENRE "Punk Rock"
REM DATE 2017
REM DISCID 8B08F60A
REM COMMENT "ExactAudioCopy v1.1"
PERFORMER "Адаптация"
TITLE "Radio Resistance"
FILE "Адаптация - Radio Resistance.flac" WAVE
  TRACK 01 AUDIO
    TITLE "Живой"
    PERFORMER "Адаптация"
    INDEX 01 00:00:00
  TRACK 02 AUDIO
    TITLE "Бищара-рай"
    PERFORMER "Адаптация"
    INDEX 01 03:58:32
  TRACK 03 AUDIO
    TITLE "Мой город будет стоять"
    PERFORMER "Адаптация"
    INDEX 01 08:06:17
  TRACK 04 AUDIO
    TITLE "Маяк над соломенным городом"
    PERFORMER "Адаптация"
    INDEX 01 11:51:66
  TRACK 05 AUDIO
    TITLE "Панки, хой!"
    PERFORMER "Адаптация"
    INDEX 01 15:04:59
  TRACK 06 AUDIO
    TITLE "За измену Родине"
    PERFORMER "Адаптация"
    INDEX 01 18:14:40
  TRACK 07 AUDIO
    TITLE "Будущего нет"
    PERFORMER "Адаптация"
    INDEX 01 22:33:69
  TRACK 08 AUDIO
    TITLE "Про дома"
    PERFORMER "Адаптация"
    INDEX 01 27:14:16
  TRACK 09 AUDIO
    TITLE "Памяти Курта Кобейна"
    PERFORMER "Адаптация"
    INDEX 01 29:47:20
  TRACK 10 AUDIO
    TITLE "Встретимся"
    PERFORMER "Адаптация"
    INDEX 01 31:51:73
Об альбоме

Этот торрент недоступен для скачивания без регистрации, однако доступен по публичной magnet-ссылке (источники с публичных трекеров). Перед использованием ссылки прочтите, пожалуйста Пользовательское соглашение, а также как можно дольше оставайтесь на раздаче! Для того, чтобы скачать сам торрент-файл (который видит больше источников), а также для того, чтобы поблагодарить релизера, вам необходимо зарегистрироваться. Если регистрироваться лень - вы можете также попробовать скачать релиз по нашим партнерским ссылкам ниже. Кроме того, зарегистрированным пользователям не показывается всплывающая реклама при скачивании.

[underverse.me].t80751.torrent
Трекер: Зарегистрирован   [ 05.04.2017 18:02 ]  

Статус: проверено (by Бишеп at 06.04.2017 05:06)
Поблагодарили: пока никто не поблагодарил...
Тип торрента: публичный - доступные источники с открытых трекеров: 
Размер: 349 MB (занимает 0,08 DVDR, для записи нужно 1 болванка DVDR/RW)
 
 
Похожие темы
Форум Тема Автор Торрент Отв. Посл. сооб.
Зарубежный Punk, Hardcore, Grunge, Alternative (Punk Rock/Street Punk) BRDigung - In Goldenen Ketten (2014) [MP3, 320 kbps] Jimmy
1 | 0

0 | 1122

4

23.04.2014 16:00

Зарубежный Punk, Hardcore, Grunge, Alternative (Punk Rock/Heavy Punk) Desakato - Buen Viaje (2014) [MP3, 320 kbps] Jimmy
1 | 0

0 | 834

5

23.04.2014 15:53

Зарубежный Punk, Hardcore, Grunge, Alternative (Punk Rock) Richie Ramone - Entitled [ex-Ramones] (2013) [MP3, 320 kbps] Jimmy
1 | 0

0 | 2112

2

21.12.2013 08:03

Зарубежный Punk, Hardcore, Grunge, Alternative (Punk Rock/Old School Pop Punk) The Bugs - 2 альбома (The Bugs/Missile To The Middle East) (2008/2013) [MP3, 320 kbps] Jimmy
1 | 0

0 | 2180

0

21.12.2013 08:06

Зарубежный Punk, Hardcore, Grunge, Alternative (Punk Rock) The So So Glos - Blowout (2013) [MP3, 320 kbps] Jimmy
1 | 0

0 | 1872

1

04.01.2014 10:17

Зарубежный Punk, Hardcore, Grunge, Alternative (Punk Rock | Melodic Hardcore) Noopinion - No Chains For Change (2013) [MP3, 320 kbps] Jimmy
0 | 0

0 | 1820

2

04.01.2014 14:20

Зарубежный Punk, Hardcore, Grunge, Alternative (Punk Rock) Stiff Little Fingers - No Going Back (2014) [MP3, 320 kbps] Jimmy
1 | 6

0 | 1804

5

23.03.2014 05:20

Зарубежный Punk, Hardcore, Grunge, Alternative (Punk Rock, Skate Punk, Melodic Punk) Authority Zero - Broadcasting To The Nations (2017) [MP3, 320 kbps CBR] Darkferse
2 | 0

0 | 899

2

02.06.2017 15:14

Зарубежный Punk, Hardcore, Grunge, Alternative (Punk Rock, Reggae) Anti-Nowhere League - League Style (Loosen Up Volume 1) (2017) [MP3, 320 kbps CBR] Darkferse
1 | 1

0 | 502

1

05.06.2017 23:58

Зарубежный Punk, Hardcore, Grunge, Alternative (Punk Rock) Beatsteaks - YOURS (2017) [MP3, 320 kbps CBR] Darkferse
1 | 0

0 | 570

1

06.09.2017 10:18


Яндекс.Метрика powered by Sphinx


В Н И М А Н И Е
Сайт не распространяет и не хранит электронные версии произведений, а лишь бесплатно и без коммерческой выгоды (не требуя взамен платы,
SMS и т.д.) предоставляет доступ к создаваемому пользователями каталогу ссылок на торрент-файлы, которые содержат только списки хеш-сумм.
Убедительная просьба с жалобами обращаться напрямую к пользователю, разместившему торрент файл.

Вверх