Loading...
Error

(Pop, Disco) Arabesque - Super Best (1984) [FLAC (Tracks+.Cue), Lossless]

Статистика раздачи
Размер:  321 MB   |    Зарегистрирован:  1 год 7 месяцев   |    Скачан:  11 раз
Сидов:  1  |  0 KB/s  ]   Личеров:  0  |  0 KB/s  ]

* - сиды/пиры с внешних источников

   
 
Автор Сообщение

Бишеп Пол:Муж

28-Апр-2017 06:27

Arabesque - Super Best

Жанр: Pop, Disco
Год выпуска: 1984
Источник: CD
Производитель диска: Victor - VDP-42
Аудиокодек: FLAC
Тип рипа: Tracks+.CUE
Битрейт аудио: lossless
Продолжительность: 00:48:33


Треклист:
01. Dance Dance Dance
02. Why No Replay
03. Midnight Dancer
04. Young Fingers Get Burnt
05. Hit The Jackpot
06. Caballero
07. Loser Pays The Piper
08. Heart On Fire
09. In For A Penny, In For A Pound
10. Zanzibar
11. Peppermint Jack
12. High Life
13. Hello Mr. Monkey
14. Indio Boy

Код:

Exact Audio Copy V1.0 beta 3 from 29. August 2011

EAC extraction logfile from 17. December 2014, 19:20

Arabesque / Super Best

Used drive  : HL-DT-STDVDRAM GH22NS50   Adapter: 1  ID: 1

Read mode               : Secure
Utilize accurate stream : Yes
Defeat audio cache      : Yes
Make use of C2 pointers : No

Read offset correction                      : 667
Overread into Lead-In and Lead-Out          : No
Fill up missing offset samples with silence : Yes
Delete leading and trailing silent blocks   : No
Null samples used in CRC calculations       : Yes
Used interface                              : Native Win32 interface for Win NT & 2000
Gap handling                                : Appended to previous track

Used output format              : User Defined Encoder
Selected bitrate                : 1024 kBit/s
Quality                         : High
Add ID3 tag                     : No
Command line compressor         : C:\Program Files (x86)\Exact Audio Copy\Flac\flac.exe
Additional command line options : -8 -V -T "ARTIST=%artist%" -T "TITLE=%title%" -T "ALBUM=%albumtitle%" -T "DATE=%year%" -T "TRACKNUMBER=%tracknr%" -T "GENRE=%genre%" -T "PERFORMER=%albuminterpret%" -T "COMPOSER=%composer%" %haslyrics%--tag-from-file=LYRICS="%lyricsfile%"%haslyrics% -T "ALBUMARTIST=%albumartist%" -T "DISCNUMBER=%cdnumber%" -T "TOTALDISCS=%totalcds%" -T "TOTALTRACKS=%numtracks%" -T "COMMENT=%comment%" %source% -o %dest%

TOC of the extracted CD

     Track |   Start  |  Length  | Start sector | End sector
    ---------------------------------------------------------
        1  |  0:00.00 |  3:12.00 |         0    |    14399   
        2  |  3:12.00 |  3:33.00 |     14400    |    30374   
        3  |  6:45.00 |  3:42.30 |     30375    |    47054   
        4  | 10:27.30 |  3:09.70 |     47055    |    61299   
        5  | 13:37.25 |  3:19.13 |     61300    |    76237   
        6  | 16:56.38 |  4:02.07 |     76238    |    94394   
        7  | 20:58.45 |  3:23.30 |     94395    |   109649   
        8  | 24:22.00 |  3:38.60 |    109650    |   126059   
        9  | 28:00.60 |  3:01.38 |    126060    |   139672   
       10  | 31:02.23 |  3:43.57 |    139673    |   156454   
       11  | 34:46.05 |  3:08.73 |    156455    |   170627   
       12  | 37:55.03 |  3:09.02 |    170628    |   184804   
       13  | 41:04.05 |  3:30.48 |    184805    |   200602   
       14  | 44:34.53 |  3:58.60 |    200603    |   218512   

Track  1

     Filename E:\Reaping\Arabesque - Super Best (1984) FLAC\01 - Dance Dance Dance.wav

     Pre-gap length  0:00:02.00

     Peak level 100.0 %
     Extraction speed 0.9 X
     Track quality 100.0 %
     Test CRC 6CFA50F8
     Copy CRC 6CFA50F8
     Track not present in AccurateRip database
     Copy OK

Track  2

     Filename E:\Reaping\Arabesque - Super Best (1984) FLAC\02 - Why No Replay.wav

     Pre-gap length  0:00:02.66

     Peak level 88.9 %
     Extraction speed 1.0 X
     Track quality 100.0 %
     Test CRC 3E22E5E8
     Copy CRC 3E22E5E8
     Track not present in AccurateRip database
     Copy OK

Track  3

     Filename E:\Reaping\Arabesque - Super Best (1984) FLAC\03 - Midnight Dancer.wav

     Pre-gap length  0:00:02.49

     Peak level 99.7 %
     Extraction speed 1.0 X
     Track quality 99.9 %
     Test CRC 2321A47F
     Copy CRC 2321A47F
     Track not present in AccurateRip database
     Copy OK

Track  4

     Filename E:\Reaping\Arabesque - Super Best (1984) FLAC\04 - Young Fingers Get Burnt.wav

     Pre-gap length  0:00:02.40

     Peak level 96.6 %
     Extraction speed 1.2 X
     Track quality 100.0 %
     Test CRC 67256FBC
     Copy CRC 67256FBC
     Track not present in AccurateRip database
     Copy OK

Track  5

     Filename E:\Reaping\Arabesque - Super Best (1984) FLAC\05 - Hit The Jackpot.wav

     Pre-gap length  0:00:02.66

     Peak level 99.7 %
     Extraction speed 1.1 X
     Track quality 99.9 %
     Test CRC E7687444
     Copy CRC E7687444
     Track not present in AccurateRip database
     Copy OK

Track  6

     Filename E:\Reaping\Arabesque - Super Best (1984) FLAC\06 - Caballero.wav

     Pre-gap length  0:00:03.00

     Peak level 100.0 %
     Extraction speed 1.4 X
     Track quality 100.0 %
     Test CRC F2AB1DA9
     Copy CRC F2AB1DA9
     Track not present in AccurateRip database
     Copy OK

Track  7

     Filename E:\Reaping\Arabesque - Super Best (1984) FLAC\07 - Loser Pays The Piper.wav

     Pre-gap length  0:00:02.42

     Peak level 96.0 %
     Extraction speed 1.4 X
     Track quality 100.0 %
     Test CRC 1FA9D5C1
     Copy CRC 1FA9D5C1
     Track not present in AccurateRip database
     Copy OK

Track  8

     Filename E:\Reaping\Arabesque - Super Best (1984) FLAC\08 - Heart On Fire.wav

     Pre-gap length  0:00:02.82

     Peak level 92.1 %
     Extraction speed 1.3 X
     Track quality 99.9 %
     Test CRC EF2E2FF6
     Copy CRC EF2E2FF6
     Track not present in AccurateRip database
     Copy OK

Track  9

     Filename E:\Reaping\Arabesque - Super Best (1984) FLAC\09 - In For A Penny, In For A Pound.wav

     Pre-gap length  0:00:02.96

     Peak level 100.0 %
     Extraction speed 1.5 X
     Track quality 100.0 %
     Test CRC 3E4D51D4
     Copy CRC 3E4D51D4
     Track not present in AccurateRip database
     Copy OK

Track 10

     Filename E:\Reaping\Arabesque - Super Best (1984) FLAC\10 - Zanzibar.wav

     Pre-gap length  0:00:02.64

     Peak level 99.7 %
     Extraction speed 1.4 X
     Track quality 99.9 %
     Test CRC A9D037F1
     Copy CRC A9D037F1
     Track not present in AccurateRip database
     Copy OK

Track 11

     Filename E:\Reaping\Arabesque - Super Best (1984) FLAC\11 - Peppermint Jack.wav

     Pre-gap length  0:00:03.22

     Peak level 100.0 %
     Extraction speed 1.7 X
     Track quality 100.0 %
     Test CRC E6209FB0
     Copy CRC E6209FB0
     Track not present in AccurateRip database
     Copy OK

Track 12

     Filename E:\Reaping\Arabesque - Super Best (1984) FLAC\12 - High Life.wav

     Pre-gap length  0:00:02.86

     Peak level 100.0 %
     Extraction speed 1.7 X
     Track quality 100.0 %
     Test CRC 6AF2D97F
     Copy CRC 6AF2D97F
     Track not present in AccurateRip database
     Copy OK

Track 13

     Filename E:\Reaping\Arabesque - Super Best (1984) FLAC\13 - Hello Mr. Monkey.wav

     Pre-gap length  0:00:02.89

     Peak level 100.0 %
     Extraction speed 1.8 X
     Track quality 100.0 %
     Test CRC 0ADF24DA
     Copy CRC 0ADF24DA
     Track not present in AccurateRip database
     Copy OK

Track 14

     Filename E:\Reaping\Arabesque - Super Best (1984) FLAC\14 - Indio Boy.wav

     Pre-gap length  0:00:03.04

     Peak level 96.4 %
     Extraction speed 1.9 X
     Track quality 100.0 %
     Test CRC 051BD6B7
     Copy CRC 051BD6B7
     Track not present in AccurateRip database
     Copy OK

None of the tracks are present in the AccurateRip database

No errors occurred

End of status report

---- CUETools DB Plugin V2.1.3

[CTDB TOCID: JBYL_zbevGyNBQt6Y1ta1r6Vw2Q-] disk not present in database, Submit result: JBYL_zbevGyNBQt6Y1ta1r6Vw2Q- has been uploaded

==== Log checksum 83F22DBB5FBBF43E17ADBEE7134C5020F2F0DD59532D86D91BC2DAB7C1555692 ====

Код:

REM GENRE Disco
REM DISCID CF0B610E
REM COMMENT "ExactAudioCopy v1.0b3"
PERFORMER "Arabesque"
TITLE "Super Best"
FILE "01 - Dance Dance Dance.wav" WAVE
  TRACK 01 AUDIO
    TITLE "Dance Dance Dance"
    PERFORMER "Arabesque"
    INDEX 01 00:00:00
  TRACK 02 AUDIO
    TITLE "Why No Replay"
    PERFORMER "Arabesque"
    INDEX 00 03:09:25
FILE "02 - Why No Replay.wav" WAVE
    INDEX 01 00:00:00
  TRACK 03 AUDIO
    TITLE "Midnight Dancer"
    PERFORMER "Arabesque"
    INDEX 00 03:30:38
FILE "03 - Midnight Dancer.wav" WAVE
    INDEX 01 00:00:00
  TRACK 04 AUDIO
    TITLE "Young Fingers Get Burnt"
    PERFORMER "Arabesque"
    INDEX 00 03:40:00
FILE "04 - Young Fingers Get Burnt.wav" WAVE
    INDEX 01 00:00:00
  TRACK 05 AUDIO
    TITLE "Hit The Jackpot"
    PERFORMER "Arabesque"
    INDEX 00 03:07:20
FILE "05 - Hit The Jackpot.wav" WAVE
    INDEX 01 00:00:00
  TRACK 06 AUDIO
    TITLE "Caballero"
    PERFORMER "Arabesque"
    INDEX 00 03:16:13
FILE "06 - Caballero.wav" WAVE
    INDEX 01 00:00:00
  TRACK 07 AUDIO
    TITLE "Loser Pays The Piper"
    PERFORMER "Arabesque"
    INDEX 00 03:59:50
FILE "07 - Loser Pays The Piper.wav" WAVE
    INDEX 01 00:00:00
  TRACK 08 AUDIO
    TITLE "Heart On Fire"
    PERFORMER "Arabesque"
    INDEX 00 03:20:43
FILE "08 - Heart On Fire.wav" WAVE
    INDEX 01 00:00:00
  TRACK 09 AUDIO
    TITLE "In For A Penny, In For A Pound"
    PERFORMER "Arabesque"
    INDEX 00 03:35:63
FILE "09 - In For A Penny, In For A Pound.wav" WAVE
    INDEX 01 00:00:00
  TRACK 10 AUDIO
    TITLE "Zanzibar"
    PERFORMER "Arabesque"
    INDEX 00 02:58:65
FILE "10 - Zanzibar.wav" WAVE
    INDEX 01 00:00:00
  TRACK 11 AUDIO
    TITLE "Peppermint Jack"
    PERFORMER "Arabesque"
    INDEX 00 03:40:40
FILE "11 - Peppermint Jack.wav" WAVE
    INDEX 01 00:00:00
  TRACK 12 AUDIO
    TITLE "High Life"
    PERFORMER "Arabesque"
    INDEX 00 03:06:08
FILE "12 - High Life.wav" WAVE
    INDEX 01 00:00:00
  TRACK 13 AUDIO
    TITLE "Hello Mr. Monkey"
    PERFORMER "Arabesque"
    INDEX 00 03:06:10
FILE "13 - Hello Mr. Monkey.wav" WAVE
    INDEX 01 00:00:00
  TRACK 14 AUDIO
    TITLE "Indio Boy"
    PERFORMER "Arabesque"
    INDEX 00 03:27:45
FILE "14 - Indio Boy.wav" WAVE
    INDEX 01 00:00:00

Этот торрент недоступен для скачивания без регистрации, однако доступен по публичной magnet-ссылке (источники с публичных трекеров). Перед использованием ссылки прочтите, пожалуйста Пользовательское соглашение, а также как можно дольше оставайтесь на раздаче! Для того, чтобы скачать сам торрент-файл (который видит больше источников), а также для того, чтобы поблагодарить релизера, вам необходимо зарегистрироваться. Если регистрироваться лень - вы можете также попробовать скачать релиз по нашим партнерским ссылкам ниже. Кроме того, зарегистрированным пользователям не показывается всплывающая реклама при скачивании.

[underverse.me].t81869.torrent
Трекер: Зарегистрирован   [ 28.04.2017 06:27 ]  

Статус: проверено (by Бишеп at 28.04.2017 06:28)
Поблагодарили: пока никто не поблагодарил...
Тип торрента: публичный - доступные источники с открытых трекеров: 
Размер: 321 MB (занимает 0,07 DVDR, для записи нужно 1 болванка DVDR/RW)
 
 
Похожие темы
Форум Тема Автор Торрент Отв. Посл. сооб.
Зарубежная Pop Музыка (Pop, Disco) Amanda Lear - Let Me Entertain You (2016) [MP3, 320 kbps] 90ytr90
2 | 2

0 | 686

5

04.11.2016 20:11

Зарубежная Pop Музыка (Pop, Disco) Modern Talking - Back for Gold (The New Version) (2017) [MP3, 320 kbps CBR] Evgenii82
9 | 1

0 | 1008

12

25.06.2017 07:54

Зарубежная Pop Музыка (Pop, Disco) C.C. Catch - Catch The Catch [Japanese Edition] (1986) [MP3, 320 kbps CBR] 90ytr90
2 | 1

0 | 182

5

28.07.2018 06:26

Зарубежная Pop Музыка (Pop, Disco, Dance) C.C. Catch - Greatest Hits (2018) [MP3, 320 kbps CBR] 90ytr90
33 | 0

0 | 194

5

11.11.2018 17:58

Отечественная Pop Музыка (Pop, Disco, Funk) Меджикул - Всё О Марфе (2016) [MP3, 320 kbps CBR] Evgenii82
2 | 0

0 | 422

4

09.02.2018 19:29

Сборники Pop, Disco, Dance (Pop, Disco, Euro Dance, Soul, Funk, Synthpop, Electro Funk) VA - 100 Hits: The Best 80S Groove Album (5CD) (2018) [MP3, 320 kbps CBR] 90ytr90
14 | 4

0 | 1201

7

22.07.2018 08:00

Сборники Pop, Disco, Dance (Pop, Disco, Europop, Dance) VA - Мега хиты: Discoteka 80 (2018) [MP3, 320 kbps CBR] Parallelo
174 | 1

0 | 608

30

22.08.2018 12:32

Неофициальные и внежанровые сборники (Pop, Disco, Dance) VA - Золотые Шлягеры 80-х 90-х В Современной Обработке (2011) [MP3, 320 kbps] mihis
2 | 0

4 | 2471

42

25.01.2014 17:21

Неофициальные и внежанровые сборники (Pop, Disco) Сборник - Disco Nostalgie 90-х [MP3, 256 kbps] Паукан
1 | 0

0 | 2209

19

27.02.2013 09:10

Неофициальные и внежанровые сборники (Pop, Disco) VA - Disco 80-х. Любимые хиты. Выпуск 50 / 50 (2013) [MP3, 256 kbps] Паукан
0 | 1

0 | 1896

27

20.03.2013 15:35

trpr20 Пол:Муж

11-Ноя-2017 17:22

спасибо :Yahoo!:

Яндекс.Метрика powered by Sphinx


В Н И М А Н И Е
Сайт не распространяет и не хранит электронные версии произведений, а лишь бесплатно и без коммерческой выгоды (не требуя взамен платы,
SMS и т.д.) предоставляет доступ к создаваемому пользователями каталогу ссылок на торрент-файлы, которые содержат только списки хеш-сумм.
Убедительная просьба с жалобами обращаться напрямую к пользователю, разместившему торрент файл.

Вверх