Loading...
Error

Афера по-английски / Trespass Against Us (Адам Смит) [2016 г., боевик, триллер, драма, криминал, BD-Remux] MVO (iTunes) + AVO (Чадов) + Original + Sub

Статистика раздачи
Размер:  29,27 GB   |    Зарегистрирован:  1 год 3 месяца   |    Скачан:  8 раз

Полного источника не было: 3 месяца 1 день

Сидов:  0  |  0 KB/s  ]   Личеров:  0  |  0 KB/s  ]

* - сиды/пиры с внешних источников

   
 
Автор Сообщение

makkol Пол:Муж

28-Апр-2017 11:32

Афера по-английски / Trespass Against Us
«Узы крови безжалостны»


Год выпуска: 2016
Жанр: боевик, триллер, драма, криминал
Производство: Великобритания [Albert Granville, Animal Kingdom, DMC Film, Film4]
Режиссер: Адам Смит
В ролях: Майкл Фассбендер, Брендан Глисон, Линдси Маршал, Джорджи Смит, Рори Киннер, Киллиан Скотт, Шон Харрис, Кингсли Бен-Адир, Кейси Андерсон, Герард Кернс
Сюжет фильма:
Чэд — великолепный гонщик. Он работает на своего отца, криминального авторитета, и виртуозно уходит от любой погони. Все было хорошо, пока Чэд не решил завязать. Отец заставил пойти на последнее дело. Вот только роскошный особняк, в который вломились грабители, принадлежал самому могущественному человеку в Англии. А он не прощает ошибок...

  • Мировая премьера: 9 сентября 2016
  • Российская премьера: 16 марта 2017


Качество видео: BD-Remux

Продолжительность: 01:39:47
Формат: MKV
Видео: MPEG-4 AVC, 1920x1080 (16:9), 23.976 fps, 34.5 Mbps
Аудио #1: русский, профессиональный многоголосый закадровый (iTunes), AC3 5.1, 48 kHz, 384 kbps
Аудио #2: русский, авторский одноголосый закадровый (Михаил Чадов), DTS-HD MA 5.1, 48 kHz, 3567 kbps - (ненорм. лексика)
Аудио #3: английский, оригинал, DTS-HD MA 5.1, 48 kHz, 3548 kbps
Субтитры: русские, английские вшитые отключаемые

Код:

Format : Matroska
Format version : Version 4 / Version 2
File size : 29.3 GiB
Duration : 1 h 39 min
Overall bit rate mode : Variable
Overall bit rate : 42.0 Mb/s
Encoded date : UTC 2017-04-28 00:03:19
Writing application : mkvmerge v11.0.0 ('Alive') 64bit
Writing library : libebml v1.3.4 + libmatroska v1.4.5

Video
ID : 1
Format : AVC
Format/Info : Advanced Video Codec
Format profile : High@L4.1
Format settings, CABAC : Yes
Format settings, ReFrames : 4 frames
Codec ID : V_MPEG4/ISO/AVC
Duration : 1 h 39 min
Bit rate mode : Variable
Bit rate : 34.5 Mb/s
Maximum bit rate : 37.0 Mb/s
Width : 1 920 pixels
Height : 1 080 pixels
Display aspect ratio : 16:9
Frame rate mode : Constant
Frame rate : 23.976 (24000/1001) FPS
Color space : YUV
Chroma subsampling : 4:2:0
Bit depth : 8 bits
Scan type : Progressive
Bits/(Pixel*Frame) : 0.694
Stream size : 24.0 GiB (82%)
Language : English
Default : Yes
Forced : No

Audio #1
ID : 2
Format : AC-3
Format/Info : Audio Coding 3
Format settings, Endianness : Big
Codec ID : A_AC3
Duration : 1 h 39 min
Bit rate mode : Constant
Bit rate : 384 kb/s
Channel(s) : 6 channels
Channel positions : Front: L C R, Side: L R, LFE
Sampling rate : 48.0 kHz
Frame rate : 31.250 FPS (1536 spf)
Bit depth : 16 bits
Compression mode : Lossy
Stream size : 274 MiB (1%)
Title : iTunes
Language : Russian
Service kind : Complete Main
Default : Yes
Forced : No

Audio #2
ID : 3
Format : DTS
Format/Info : Digital Theater Systems
Format profile : MA / Core
Mode : 16
Format settings, Endianness : Big
Codec ID : A_DTS
Duration : 1 h 39 min
Bit rate mode : Variable / Constant
Bit rate : 3 567 kb/s / 1 509 kb/s
Channel(s) : 6 channels
Channel positions : Front: L C R, Side: L R, LFE
Sampling rate : 48.0 kHz
Frame rate : 93.750 FPS (512 spf)
Bit depth : 24 bits
Compression mode : Lossless / Lossy
Stream size : 2.49 GiB (8%)
Title : AVO [Чадов]
Language : Russian
Default : No
Forced : No

Audio #3
ID : 4
Format : DTS
Format/Info : Digital Theater Systems
Format profile : MA / Core
Mode : 16
Format settings, Endianness : Big
Codec ID : A_DTS
Duration : 1 h 39 min
Bit rate mode : Variable / Constant
Bit rate : 3 548 kb/s / 1 509 kb/s
Channel(s) : 6 channels
Channel positions : Front: L C R, Side: L R, LFE
Sampling rate : 48.0 kHz
Frame rate : 93.750 FPS (512 spf)
Bit depth : 24 bits
Compression mode : Lossless / Lossy
Stream size : 2.47 GiB (8%)
Title : Original
Language : English
Default : No
Forced : No

Text #1
ID : 5
Format : UTF-8
Codec ID : S_TEXT/UTF8
Codec ID/Info : UTF-8 Plain Text
Duration : 1 h 32 min
Bit rate : 91 b/s
Count of elements : 1248
Stream size : 62.0 KiB (0%)
Title : Full [Чадов]
Language : Russian
Default : No
Forced : No

Text #2
ID : 6
Format : UTF-8
Codec ID : S_TEXT/UTF8
Codec ID/Info : UTF-8 Plain Text
Duration : 1 h 32 min
Bit rate : 56 b/s
Count of elements : 1110
Stream size : 38.0 KiB (0%)
Title : Full
Language : English
Default : No
Forced : No

Text #3
ID : 7
Format : UTF-8
Codec ID : S_TEXT/UTF8
Codec ID/Info : UTF-8 Plain Text
Duration : 1 h 34 min
Bit rate : 63 b/s
Count of elements : 1343
Stream size : 43.8 KiB (0%)
Title : SDH
Language : English
Default : No
Forced : No

Text #4
ID : 8
Format : UTF-8
Codec ID : S_TEXT/UTF8
Codec ID/Info : UTF-8 Plain Text
Duration : 1 h 35 min
Bit rate : 81 b/s
Count of elements : 1343
Stream size : 56.8 KiB (0%)
Title : SDH (Colored)
Language : English
Default : No
Forced : No

Menu
00:00:00.000 : en:00:00:00.000
00:06:50.368 : en:00:06:50.368
00:14:10.641 : en:00:14:10.641
00:20:12.545 : en:00:20:12.545
00:27:49.626 : en:00:27:49.626
00:34:23.436 : en:00:34:23.436
00:43:00.536 : en:00:43:00.536
00:46:40.297 : en:00:46:40.297
00:51:12.152 : en:00:51:12.152
00:57:30.906 : en:00:57:30.906
01:01:19.050 : en:01:01:19.050
01:07:29.045 : en:01:07:29.045
01:14:01.020 : en:01:14:01.020
01:19:38.816 : en:01:19:38.816
01:25:42.053 : en:01:25:42.053
01:31:56.135 : en:01:31:56.135
Релиз:

picpicpicpicpic
Для увеличения картинки щелкните мышкой по превью

Этот торрент недоступен для скачивания без регистрации, однако доступен по публичной magnet-ссылке (источники с публичных трекеров). Перед использованием ссылки прочтите, пожалуйста Пользовательское соглашение, а также как можно дольше оставайтесь на раздаче! Для того, чтобы скачать сам торрент-файл (который видит больше источников), а также для того, чтобы поблагодарить релизера, вам необходимо зарегистрироваться. Если регистрироваться лень - вы можете также попробовать скачать релиз по нашим партнерским ссылкам ниже. Кроме того, зарегистрированным пользователям не показывается всплывающая реклама при скачивании.

[underverse.me].t81875.torrent
Трекер: Зарегистрирован   [ 28.04.2017 11:32 ]  

Статус: T временная (by makkol at 28.04.2017 11:33)
Поблагодарили: пока никто не поблагодарил...
Тип торрента: публичный - доступные источники с открытых трекеров: 
Размер: 29,27 GB (занимает 6,69 DVDR, для записи нужно 7 болванок DVDR/RW)
 
 
Похожие темы
Форум Тема Автор Торрент Отв. Посл. сооб.
Зарубежное кино [DVDRip, Low-Res HDRip, и т.д.] Афера по-американски / American Hustle (Дэвид О. Расселл / David O. Russell) [2013 г., драма, комедия, HDRip] Dub WeaSel
1 | 0

0 | 2273

74

19.03.2014 13:22

Зарубежное кино [DVDRip, Low-Res HDRip, и т.д.] Афера по-американски / American Hustle (Дэвид О. Расселл / David O. Russell) [2013 г., драма, комедия, BDRip] Dub + Original (Eng) 90ytr90
1 | 0

0 | 1285

25

08.04.2014 04:55

T Зарубежное кино [DVDRip, Low-Res HDRip, и т.д.] Афера по-английски / Должники наши / Trespass Against Us (Адам Смит / Adam Smith) [2016 г., боевик, триллер, драма, криминал, WEB-DLRip] MVO (Синема УС) 90ytr90
9 | 0

0 | 1397

24

24.12.2016 09:55

T Зарубежное кино [DVDRip, Low-Res HDRip, и т.д.] Афера по-английски / Должники наши / Trespass Against Us (Адам Смит / Adam Smith) [2016 г., боевик, триллер, драма, криминал, WEB-DLRip] MVO (Синема УС) 90ytr90
2 | 0

0 | 1368

22

19.01.2017 18:27

T Зарубежное кино [DVDRip, Low-Res HDRip, и т.д.] Афера по-английски / Trespass Against Us (Адам Смит) [2016 г., боевик, триллер, драма, криминал, HDRip] MVO (звук с CAMRip) makkol
2 | 0

0 | 893

4

23.03.2017 13:53

T Зарубежное кино [DVDRip, Low-Res HDRip, и т.д.] Афера по-английски / Trespass Against Us (Адам Смит) [2016 г., боевик, триллер, драма, криминал, BDRip] MVO (iTunes) makkol
1 | 0

0 | 1321

13

27.04.2017 21:24

Зарубежное кино HQ Афера по-американски / American Hustle (Дэвид О. Расселл) [2013 г., драма, комедия, BDRip] Dub + Original + Sub (Rus,Eng) HQ Underverse HQ Underverse
4 | 0

0 | 1978

135

11.04.2014 11:30

Зарубежное кино [HDDVDRip / BDRip / WEB-DL / HDTV 1080/720р] Афера по-американски / American Hustle (Дэвид О. Расселл / David O. Russell) [2013 г., драма, комедия, BDRip 1080p] Dub + MVO (BaibaKo) + Original (Eng) + Sub (Rus, Eng) 90ytr90
2 | 0

0 | 1542

41

19.03.2014 17:40

Зарубежное кино [HDDVDRip / BDRip / WEB-DL / HDTV 1080/720р] Афера по-американски / American Hustle (Дэвид О. Расселл) [2013 г., драма, комедия BDRip 720p] Dub + Original (Eng) + Sub (Rus, Eng) WeaSel
0 | 0

0 | 1543

35

19.03.2014 13:43

T Зарубежное кино [HDDVDRip / BDRip / WEB-DL / HDTV 1080/720р] Афера по-английски / Должники наши / Trespass Against Us (Адам Смит / Adam Smith) [2016 г., боевик, триллер, драма, криминал, WEB-DLRip 720р] MVO (Синема УС) 90ytr90
1 | 0

0 | 1026

4

19.01.2017 18:17


Яндекс.Метрика powered by Sphinx


В Н И М А Н И Е
Сайт не распространяет и не хранит электронные версии произведений, а лишь бесплатно и без коммерческой выгоды (не требуя взамен платы,
SMS и т.д.) предоставляет доступ к создаваемому пользователями каталогу ссылок на торрент-файлы, которые содержат только списки хеш-сумм.
Убедительная просьба с жалобами обращаться напрямую к пользователю, разместившему торрент файл.

Вверх