Loading...
Error

(Easy Listening, Smooth Jazz, Vocal Jazz) Nicki Parrott - Unforgettable ~The Nat King Cole Songbook (2017) [FLAC (Image+.CUE), Lossless]

Статистика раздачи
Размер:  300 MB   |    Зарегистрирован:  1 год 3 месяца   |    Скачан:  5 раз

Полного источника не было: 13 часов

Сидов:  0  |  0 KB/s  ]   Личеров:  0  |  0 KB/s  ]

* - сиды/пиры с внешних источников

   
 
Автор Сообщение

Бишеп Пол:Муж

10-Май-2017 07:46

Nicki Parrott - Unforgettable ~The Nat King Cole Songbook

Жанр: Easy Listening, Smooth Jazz, Vocal Jazz
Год выпуска: 2017
Источник: CD
Производитель диска: Venus Records - VHCD-1213
Аудиокодек: FLAC
Тип рипа: Image+.CUE
Битрейт аудио: lossless
Продолжительность: 00:51:53


Треклист:
01. Walkin' My Baby Back Home (2:57)
02. Let's Fall In Love (4:50)
03. The Very Thought Of You (5:17)
04. Hit That Jive Jack (3:20)
05. Mona Lisa (3:32)
06. Meet Me At No Special Place (4:11)
07. A Nightingale Sang In Berkeley Square (4:25)
08. Unforgettable (4:11)
09. Straighten Up And Fly Right (2:29)
10. For Sentimental Reasons (4:13)
11. When I Fall In Love (3:56)
12. L-O-V-E (2:37)
13. Answer Me My Love (2:58)
14. Perfidia (2:58)

Код:

Exact Audio Copy V1.1 from 23. June 2015

Отчёт EAC об извлечении, выполненном 26. апреля 2017, 22:50

Nicki Parrott / Unforgettble

Дисковод: ASUS    DRW-22B3S   Adapter: 1  ID: 2

Режим чтения                 : Достоверность
Использование точного потока : Да
Отключение кэша аудио        : Да
Использование указателей C2  : Нет

Коррекция смещения при чтении                     : 6
Способность читать области Lead-in и Lead-out     : Нет
Заполнение пропущенных сэмплов тишиной            : Да
Удаление блоков с тишиной в начале и конце        : Нет
При вычислениях CRC использовались нулевые сэмплы : Да
Интерфейс                                         : Встроенный Win32-интерфейс для Win NT/2000

Выходной формат          : Пользовательский кодировщик
Выбранный битрейт        : 768 kBit/s
Качество                 : Высокий
Добавление ID3-тега      : Нет
Утилита сжатия           : C:\Program Files\Exact Audio Copy\FLAC\FLAC.EXE
Дополнительные параметры : -6 -V -T "ARTIST=%artist%" -T "TITLE=%title%" -T "ALBUM=%albumtitle%" -T "DATE=%year%" -T "TRACKNUMBER=%tracknr%" -T "GENRE=%genre%" -T "COMMENT=%comment%" -T "BAND=%albuminterpret%" -T "ALBUMARTIST=%albuminterpret%" -T "COMPOSER=%composer%" %haslyrics%--tag-from-file=LYRICS="%lyricsfile%"%haslyrics% -T "DISCNUMBER=%cdnumber%" -T "TOTALDISCS=%totalcds%" -T "TOTALTRACKS=%numtracks%" %hascover%--picture="%coverfile%"%hascover% %source% -o %dest%

TOC извлечённого CD

     Трек |   Старт  | Длительность | Начальный сектор | Конечный сектор
    ---------------------------------------------------------------------
       1  |  0:00.00 |    2:56.46   |           0      |      13245     
       2  |  2:56.46 |    4:50.08   |       13246      |      35003     
       3  |  7:46.54 |    5:16.70   |       35004      |      58773     
       4  | 13:03.49 |    3:20.31   |       58774      |      73804     
       5  | 16:24.05 |    3:32.23   |       73805      |      89727     
       6  | 19:56.28 |    4:10.51   |       89728      |     108528     
       7  | 24:07.04 |    4:24.44   |      108529      |     128372     
       8  | 28:31.48 |    4:11.04   |      128373      |     147201     
       9  | 32:42.52 |    2:28.43   |      147202      |     158344     
      10  | 35:11.20 |    4:13.11   |      158345      |     177330     
      11  | 39:24.31 |    3:55.49   |      177331      |     195004     
      12  | 43:20.05 |    2:36.73   |      195005      |     206777     
      13  | 45:57.03 |    2:57.68   |      206778      |     220120     
      14  | 48:54.71 |    2:58.21   |      220121      |     233491     

Характеристики диапазона извлечения и сообщения об ошибках

Выбранный диапазон

     Имя файла D:\New Uploads 01.12.2016\Nicki Parrott - Unforgettble - 2017  51'55''\Nicki Parrott - Unforgettble.wav

     Пиковый уровень 97.5 %
     Скорость извлечения 3.2 X
     Качество диапазона 100.0 %
     CRC теста FF989C44
     CRC копии FF989C44
     Копирование... OK

Ошибок не произошло

Конец отчёта

---- CUETools DB Plugin V2.1.6

[CTDB TOCID: H.TrLq8Fqau_sh896PSeLweElZ0-] found
Submit result: H.TrLq8Fqau_sh896PSeLweElZ0- has been confirmed
Track | CTDB Status
  1   | (16/16) Accurately ripped
  2   | (16/16) Accurately ripped
  3   | (16/16) Accurately ripped
  4   | (16/16) Accurately ripped
  5   | (16/16) Accurately ripped
  6   | (16/16) Accurately ripped
  7   | (16/16) Accurately ripped
  8   | (16/16) Accurately ripped
  9   | (16/16) Accurately ripped
 10   | (16/16) Accurately ripped
 11   | (16/16) Accurately ripped
 12   | (16/16) Accurately ripped
 13   | (16/16) Accurately ripped
 14   | (16/16) Accurately ripped

==== Контрольная сумма отчёта FA69C67785A696735E137EF7DC1E24B0824B84FFFE96CD8C43B3AA45E236388E ====

Код:

REM GENRE Jazz
REM DATE 2017
REM DISCID E10C290E
REM COMMENT "ExactAudioCopy v1.1"
PERFORMER "Nicki Parrott"
TITLE "Unforgettble"
FILE "Nicki Parrott - Unforgettble.flac" WAVE
  TRACK 01 AUDIO
    TITLE "Walkin' My Baby Back Home"
    PERFORMER "Nicki Parrott"
    INDEX 01 00:00:00
  TRACK 02 AUDIO
    TITLE "Let's Fall In Love"
    PERFORMER "Nicki Parrott"
    INDEX 01 02:56:46
  TRACK 03 AUDIO
    TITLE "The Very Thought Of You"
    PERFORMER "Nicki Parrott"
    INDEX 01 07:46:54
  TRACK 04 AUDIO
    TITLE "Hit That Jive Jack"
    PERFORMER "Nicki Parrott"
    INDEX 01 13:03:49
  TRACK 05 AUDIO
    TITLE "Mona Lisa"
    PERFORMER "Nicki Parrott"
    INDEX 01 16:24:05
  TRACK 06 AUDIO
    TITLE "Meet Me At No Special Place"
    PERFORMER "Nicki Parrott"
    INDEX 01 19:56:28
  TRACK 07 AUDIO
    TITLE "A Nightingale Sang In Berkeley Square"
    PERFORMER "Nicki Parrott"
    INDEX 01 24:07:04
  TRACK 08 AUDIO
    TITLE "Unforgettable"
    PERFORMER "Nicki Parrott"
    INDEX 01 28:31:48
  TRACK 09 AUDIO
    TITLE "Straighten Up And Fly Right"
    PERFORMER "Nicki Parrott"
    INDEX 01 32:42:52
  TRACK 10 AUDIO
    TITLE "For Sentimental Reasons"
    PERFORMER "Nicki Parrott"
    INDEX 01 35:11:20
  TRACK 11 AUDIO
    TITLE "When I Fall In Love"
    PERFORMER "Nicki Parrott"
    INDEX 01 39:24:31
  TRACK 12 AUDIO
    TITLE "L-O-V-E"
    PERFORMER "Nicki Parrott"
    INDEX 01 43:20:05
  TRACK 13 AUDIO
    TITLE "Answer Me My Love"
    PERFORMER "Nicki Parrott"
    INDEX 01 45:57:03
  TRACK 14 AUDIO
    TITLE "Perfidia"
    PERFORMER "Nicki Parrott"
    INDEX 01 48:54:71

Этот торрент недоступен для скачивания без регистрации, однако доступен по публичной magnet-ссылке (источники с публичных трекеров). Перед использованием ссылки прочтите, пожалуйста Пользовательское соглашение, а также как можно дольше оставайтесь на раздаче! Для того, чтобы скачать сам торрент-файл (который видит больше источников), а также для того, чтобы поблагодарить релизера, вам необходимо зарегистрироваться. Если регистрироваться лень - вы можете также попробовать скачать релиз по нашим партнерским ссылкам ниже. Кроме того, зарегистрированным пользователям не показывается всплывающая реклама при скачивании.

[underverse.me].t82466.torrent
Трекер: Зарегистрирован   [ 10.05.2017 07:46 ]  

Статус: проверено (by Бишеп at 10.05.2017 07:46)
Поблагодарили: пока никто не поблагодарил...
Тип торрента: публичный - доступные источники с открытых трекеров: 
Размер: 300 MB (занимает 0,07 DVDR, для записи нужно 1 болванка DVDR/RW)
 
 
Похожие темы
Форум Тема Автор Торрент Отв. Посл. сооб.
Зарубежная Pop Музыка (Easy Listening, Pop) Andrea Benezra - Midnight Moon (2018) [MP3, 320 kbps CBR] 90ytr90
1 | 0

0 | 33

1

05.08.2018 11:17

Сборники (Easy Listening, Vocal Jazz, Latin) VA - 100 Hits Cool (2016) [MP3, 320 kbps CBR] Evgenii82
2 | 0

0 | 779

6

20.01.2017 16:55

Неофициальные и внежанровые сборники (Easy Listening) Forbidden Ensemble - P*rno Soundtracks (2008) [MP3, 128 kbps] garry
0 | 0

0 | 1104

3

20.06.2009 20:29

Chillout, Lounge, Downtempo (Lossless) (Easy Listening, Lo-Fi, Space Downtempo) Спутник - Любимые песни Советских Космонавтов (1998) [FLAC (tracks), lossless] 8ad_R060d
6 | 1

0 | 2151

13

01.04.2014 10:28

* Архив (электронная музыка) (Easy Listening ,Downtempo) Kuba - Bringing it All Back Home (2009) [MP3, 192-320 kbps] LAMA

1 | 1219

30.08.2010 01:30

Архив (блюз, джаз) (Easy Listening / Nu Jazz) Club Des Belugas - Swop (2008) [MP3, 320 kbps] M-i-i-i-ke
0 | 0

1 | 1188

2

17.02.2011 14:46

Архив (музыка других жанров) (Easy Listening ) VA - Музыка моего авто (2009) [MP3,128-320 kbps] LAMA
0 | 0

3 | 1952

9

30.08.2010 01:31


Яндекс.Метрика powered by Sphinx


В Н И М А Н И Е
Сайт не распространяет и не хранит электронные версии произведений, а лишь бесплатно и без коммерческой выгоды (не требуя взамен платы,
SMS и т.д.) предоставляет доступ к создаваемому пользователями каталогу ссылок на торрент-файлы, которые содержат только списки хеш-сумм.
Убедительная просьба с жалобами обращаться напрямую к пользователю, разместившему торрент файл.

Вверх