Loading...
Error

Последствия / Aftermath (Эллиотт Лестер) [2017 г., триллер, драма, BD-Remux] Dub

Статистика раздачи
Размер:  15,38 GB   |    Зарегистрирован:  1 год 2 месяца   |    Скачан:  7 раз

Полного источника не было: 5 месяцев 3 дня

Сидов:  0  |  0 KB/s  ]   Личеров:  0  |  0 KB/s  ]

* - сиды/пиры с внешних источников

   
 
Автор Сообщение

makkol Пол:Муж

21-Май-2017 10:10

Последствия / Aftermath
«Месть - путешествие без возврата»


Год выпуска: 2017
Жанр: триллер, драма
Производство: США [Emmett/Furla Films, Hat and Cat Productions]
Режиссер: Эллиотт Лестер
В ролях: Арнольд Шварценеггер, Мэгги Грэйс, Кевин Зегерс, Скут МакНэри, Ханна Уэр, Мариана Клавено, Гленн Моршауэр, Ларри Салливан, Мартин Донован
Сюжет фильма:
Ожидающий прилета своей семьи Роман узнает, что случилось непоправимое. Произошла авиакатастрофа и его любимые — жена и беременная дочь — погибли. Потеряв тех, ради кого жил, он преследует единственную цель: посмотреть в глаза невольного убийцы и услышать слова сожаления. Более года поиска приводит Романа к авиадиспетчеру Джейку, управлявшему курсом самолета в момент катастрофы.

В основе фильма - история столкновения двух самолётов над Боденским озером и последующем убийстве швейцарского авиадиспетчера Петера Нильсена гражданином России архитектором Виталием Калоевым, потерявшем в катастрофе жену и двоих детей.

  • Мировая премьера: 6 апреля 2017
  • Российская премьера: 6 апреля 2017


Качество видео: BD-Remux

Продолжительность: 01:33:59
Формат: MKV
Видео: MPEG-4 AVC, 1920x1080 (16:9), 24.000 fps, 20.0 Mbps
Аудио: русский, дублированный (лицензия), DTS-HD MA 5.1, 48 kHz, 3489 kbps

Код:

Format : Matroska
Format version : Version 4 / Version 2
File size : 15.4 GiB
Duration : 1 h 33 min
Overall bit rate mode : Variable
Overall bit rate : 23.5 Mb/s
Encoded date : UTC 2017-05-20 18:18:17
Writing application : mkvmerge v11.0.0 ('Alive') 64bit
Writing library : libebml v1.3.4 + libmatroska v1.4.5

Video
ID : 1
Format : AVC
Format/Info : Advanced Video Codec
Format profile : High@L4
Format settings, CABAC : Yes
Format settings, ReFrames : 2 frames
Format settings, GOP : M=2, N=13
Codec ID : V_MPEG4/ISO/AVC
Duration : 1 h 33 min
Bit rate mode : Variable
Bit rate : 20.0 Mb/s
Maximum bit rate : 22.0 Mb/s
Width : 1 920 pixels
Height : 1 080 pixels
Display aspect ratio : 16:9
Frame rate mode : Constant
Frame rate : 24.000 FPS
Color space : YUV
Chroma subsampling : 4:2:0
Bit depth : 8 bits
Scan type : Progressive
Bits/(Pixel*Frame) : 0.401
Stream size : 13.1 GiB (85%)
Language : Russian
Default : Yes
Forced : No

Audio
ID : 2
Format : DTS
Format/Info : Digital Theater Systems
Format profile : MA / Core
Mode : 16
Format settings, Endianness : Big
Codec ID : A_DTS
Duration : 1 h 33 min
Bit rate mode : Variable / Constant
Bit rate : 3 489 kb/s / 1 509 kb/s
Channel(s) : 6 channels
Channel positions : Front: L C R, Side: L R, LFE
Sampling rate : 48.0 kHz
Frame rate : 93.750 FPS (512 spf)
Bit depth : 24 bits
Compression mode : Lossless / Lossy
Stream size : 2.29 GiB (15%)
Title : Dub [License]
Language : Russian
Default : Yes
Forced : No

Menu
00:00:00.000 : en:1
00:01:14.000 : en:2
00:10:56.000 : en:3
00:22:51.000 : en:4
00:33:46.000 : en:5
00:42:42.000 : en:6
00:54:19.000 : en:7
01:03:37.000 : en:8
01:13:49.000 : en:9
01:27:54.000 : en:10
Релиз:

picpicpicpicpic
Для увеличения картинки щелкните мышкой по превью

Этот торрент недоступен для скачивания без регистрации, однако доступен по публичной magnet-ссылке (источники с публичных трекеров). Перед использованием ссылки прочтите, пожалуйста Пользовательское соглашение, а также как можно дольше оставайтесь на раздаче! Для того, чтобы скачать сам торрент-файл (который видит больше источников), а также для того, чтобы поблагодарить релизера, вам необходимо зарегистрироваться. Если регистрироваться лень - вы можете также попробовать скачать релиз по нашим партнерским ссылкам ниже. Кроме того, зарегистрированным пользователям не показывается всплывающая реклама при скачивании.

[underverse.me].t82956.torrent
Трекер: Зарегистрирован   [ 21.05.2017 10:10 ]  

Статус: проверено (by makkol at 21.05.2017 10:11)
Поблагодарили: пока никто не поблагодарил...
Тип торрента: публичный - доступные источники с открытых трекеров: 
Размер: 15,38 GB (занимает 3,51 DVDR, для записи нужно 4 болванки DVDR/RW)
 
 
Похожие темы
Форум Тема Автор Торрент Отв. Посл. сооб.
Зарубежное кино [DVDRip, Low-Res HDRip, и т.д.] Последствия / Poklosie (Владислав Пасиковский) [2012 г., триллер, криминал, драма, HDRip] VO RG NewCinema
1 | 0

0 | 1141

9

23.04.2013 08:44

Зарубежное кино [DVDRip, Low-Res HDRip, и т.д.] Последствия / Aftermath (Эллиотт Лестер) [2017 г., триллер, драма, HDRip] Dub makkol
43 | 0

0 | 993

15

20.05.2017 10:26

Зарубежное кино [DVDRip, Low-Res HDRip, и т.д.] Последствия / Aftermath (Эллиотт Лестер) [2017 г., триллер, драма, BDRip-AVC] Dub makkol
2 | 0

0 | 417

9

21.05.2017 10:02

Зарубежное кино [HDDVDRip / BDRip / WEB-DL / HDTV 1080/720р] Последствия / Aftermath (Эллиотт Лестер) [2017 г., триллер, драма, BDRip 1080p] Dub makkol
3 | 0

0 | 815

6

21.05.2017 09:51

Зарубежное кино [HDDVDRip / BDRip / WEB-DL / HDTV 1080/720р] Последствия / Aftermath (Эллиотт Лестер / Elliott Lester) [2017 г., триллер, драма, BDRip 720p] Dub + Original (Eng) + Sub (Eng) 90ytr90
9 | 0

0 | 362

1

22.06.2017 08:36

Зарубежное кино [HDDVDRip / BDRip / WEB-DL / HDTV 1080/720р] Последствия / Aftermath (Эллиотт Лестер / Elliott Lester) [2017 г., триллер, драма, BDRip 720p] Dub 90ytr90
14 | 2

0 | 383

3

22.06.2017 08:43

Зарубежное кино [HDDVDRip / BDRip / WEB-DL / HDTV 1080/720р] Последствия / Aftermath (Эллиотт Лестер / Elliott Lester) [2017 г., триллер, драма, BDRip 1080p] Dub + Sub (Rus) 90ytr90
17 | 0

0 | 445

4

22.06.2017 08:50


Яндекс.Метрика powered by Sphinx


В Н И М А Н И Е
Сайт не распространяет и не хранит электронные версии произведений, а лишь бесплатно и без коммерческой выгоды (не требуя взамен платы,
SMS и т.д.) предоставляет доступ к создаваемому пользователями каталогу ссылок на торрент-файлы, которые содержат только списки хеш-сумм.
Убедительная просьба с жалобами обращаться напрямую к пользователю, разместившему торрент файл.

Вверх