Loading...
Error

Собачья жизнь / A Dog's Purpose (Лассе Халльстрём) [2017 г., фэнтези, драма, комедия, приключения, семейный, BD-Remux] Dub (iTunes) + Original

Статистика раздачи
Размер:  25,32 GB   |    Зарегистрирован:  1 год 2 месяца   |    Скачан:  8 раз
Сидов:  1  |  0 KB/s  ]   Личеров:  0  |  0 KB/s  ]

* - сиды/пиры с внешних источников

   
 
Автор Сообщение

makkol Пол:Муж

25-Май-2017 13:11

Собачья жизнь / A Dog's Purpose


Год выпуска: 2017
Жанр: фэнтези, драма, комедия, приключения, семейный
Производство: США [Amblin Entertainment, Original Pictures]
Режиссер: Лассе Халльстрём
В ролях: Джош Гэд, Дэннис Куэйд, Пегги Липтон, Кей Джей Апа, Брайс Гейзар, Джульет Райлэнс, Люк Кирби, Габриель Роз, Майкл Бофшевер, Бритт Робертсон
Сюжет фильма:
Собаки бывают разных пород, мастей и размеров. Они — наши самые верные и преданные друзья, а мы учим их хорошим манерам. Собаки всегда думают о нас, правда, иногда и о беконе. Все они каждый день провожают и встречают нас у порога в уверенности, что пока им есть, кого облизывать и любить, в их жизни есть смысл.

  • Мировая премьера: 19 января 2017
  • Российская премьера: 30 марта 2017


Качество видео: BD-Remux

Продолжительность: 01:40:02
Формат: MKV
Видео: MPEG-4 AVC, 1920x1080 (16:9), 23.976 fps, 32.2 Mbps
Аудио #1: русский, дублированный (iTunes), AC3 5.1, 48 kHz, 384 kbps
Аудио #2: английский, оригинал, DTS-HD MA 5.1, 48 kHz, 3686 kbps
Субтитры: английский вшитые отключаемые

Код:

Format : Matroska
Format version : Version 4 / Version 2
File size : 25.3 GiB
Duration : 1 h 40 min
Overall bit rate mode : Variable
Overall bit rate : 36.2 Mb/s
Encoded date : UTC 2017-05-25 02:25:08
Writing application : mkvmerge v12.0.0 ('Trust / Lust') 64bit
Writing library : libebml v1.3.4 + libmatroska v1.4.5

Video
ID : 1
Format : AVC
Format/Info : Advanced Video Codec
Format profile : High@L4.1
Format settings, CABAC : Yes
Format settings, ReFrames : 4 frames
Codec ID : V_MPEG4/ISO/AVC
Duration : 1 h 40 min
Bit rate mode : Variable
Bit rate : 32.2 Mb/s
Maximum bit rate : 35.0 Mb/s
Width : 1 920 pixels
Height : 1 080 pixels
Display aspect ratio : 16:9
Frame rate mode : Constant
Frame rate : 23.976 (24000/1001) FPS
Color space : YUV
Chroma subsampling : 4:2:0
Bit depth : 8 bits
Scan type : Progressive
Bits/(Pixel*Frame) : 0.647
Stream size : 22.5 GiB (89%)
Language : English
Default : Yes
Forced : No

Audio #1
ID : 2
Format : AC-3
Format/Info : Audio Coding 3
Format settings, Endianness : Big
Codec ID : A_AC3
Duration : 1 h 40 min
Bit rate mode : Constant
Bit rate : 384 kb/s
Channel(s) : 6 channels
Channel positions : Front: L C R, Side: L R, LFE
Sampling rate : 48.0 kHz
Frame rate : 31.250 FPS (1536 spf)
Bit depth : 16 bits
Compression mode : Lossy
Stream size : 275 MiB (1%)
Title : iTunes
Language : Russian
Service kind : Complete Main
Default : Yes
Forced : No

Audio #2
ID : 3
Format : DTS
Format/Info : Digital Theater Systems
Format profile : MA / Core
Mode : 16
Format settings, Endianness : Big
Codec ID : A_DTS
Duration : 1 h 40 min
Bit rate mode : Variable / Constant
Bit rate : 3 686 kb/s / 1 509 kb/s
Channel(s) : 6 channels
Channel positions : Front: L C R, Side: L R, LFE
Sampling rate : 48.0 kHz
Frame rate : 93.750 FPS (512 spf)
Bit depth : 24 bits
Compression mode : Lossless / Lossy
Stream size : 2.58 GiB (10%)
Title : Original
Language : English
Default : No
Forced : No

Text
ID : 4
Format : UTF-8
Codec ID : S_TEXT/UTF8
Codec ID/Info : UTF-8 Plain Text
Duration : 1 h 35 min
Bit rate : 66 b/s
Count of elements : 1862
Stream size : 46.5 KiB (0%)
Title : Full
Language : English
Default : No
Forced : No

Menu
00:00:00.000 : en:Chapter 1
00:04:39.779 : en:Chapter 2
00:08:54.409 : en:Chapter 3
00:14:10.308 : en:Chapter 4
00:17:46.482 : en:Chapter 5
00:22:38.607 : en:Chapter 6
00:28:33.003 : en:Chapter 7
00:33:45.482 : en:Chapter 8
00:37:26.703 : en:Chapter 9
00:42:16.117 : en:Chapter 10
00:48:31.534 : en:Chapter 11
00:51:24.248 : en:Chapter 12
00:56:04.736 : en:Chapter 13
01:01:12.669 : en:Chapter 14
01:05:40.311 : en:Chapter 15
01:12:03.069 : en:Chapter 16
01:16:24.497 : en:Chapter 17
01:21:07.988 : en:Chapter 18
01:27:57.939 : en:Chapter 19
01:33:40.615 : en:Chapter 20
Релиз:

picpicpicpicpic
Для увеличения картинки щелкните мышкой по превью

Этот торрент недоступен для скачивания без регистрации, однако доступен по публичной magnet-ссылке (источники с публичных трекеров). Перед использованием ссылки прочтите, пожалуйста Пользовательское соглашение, а также как можно дольше оставайтесь на раздаче! Для того, чтобы скачать сам торрент-файл (который видит больше источников), а также для того, чтобы поблагодарить релизера, вам необходимо зарегистрироваться. Если регистрироваться лень - вы можете также попробовать скачать релиз по нашим партнерским ссылкам ниже. Кроме того, зарегистрированным пользователям не показывается всплывающая реклама при скачивании.

[underverse.me].t83173.torrent
Трекер: Зарегистрирован   [ 25.05.2017 13:11 ]  

Статус: T временная (by makkol at 25.05.2017 13:11)
Поблагодарили: 1 человек
Тип торрента: публичный - доступные источники с открытых трекеров: 
Размер: 25,32 GB (занимает 5,78 DVDR, для записи нужно 6 болванок DVDR/RW)
 
 
Похожие темы
Форум Тема Автор Торрент Отв. Посл. сооб.
T Зарубежное кино [DVDRip, Low-Res HDRip, и т.д.] Собачья жизнь / A Dog's Purpose (Лассе Халльстрём) [2017 г., фэнтези, драма, комедия, приключения, семейный, WEB-DLRip] Dub (звук с TS) makkol
0 | 0

0 | 913

9

18.04.2017 21:16

T Зарубежное кино [DVDRip, Low-Res HDRip, и т.д.] Собачья жизнь / A Dog's Purpose (Лассе Халльстрём) [2017 г., фэнтези, драма, комедия, приключения, семейный, HDRip] Dub (Line) makkol
17 | 0

0 | 641

25

26.04.2017 09:46

T Зарубежное кино [DVDRip, Low-Res HDRip, и т.д.] Собачья жизнь / A Dog's Purpose (Лассе Халльстрём) [2017 г., фэнтези, драма, комедия, приключения, семейный, BDRip] Dub (iTunes) makkol
1300 | 6

0 | 1396

43

24.05.2017 21:33

T Зарубежное кино [DVDRip, Low-Res HDRip, и т.д.] Собачья жизнь / A Dog's Purpose (Лассе Халльстрём) [2017 г., фэнтези, драма, комедия, приключения, семейный, BDRip-AVC] Dub (iTunes) + Original makkol
14 | 0

0 | 710

7

24.05.2017 21:43

T Зарубежное кино [DVDRip, Low-Res HDRip, и т.д.] Собачья жизнь / A Dog's Purpose (Лассе Халльстрём) [2017 г., фэнтези, драма, комедия, приключения, семейный, BDRip-AVC] Dub (iTunes) + Sub (Rus) 90ytr90
7 | 0

0 | 439

9

09.04.2018 17:52

T Зарубежное кино [DVD / HDDVD / BD / Remux] Собачья жизнь / A Dog's Purpose (Лассе Халльстрём) [2017 г., фэнтези, драма, комедия, приключения, семейный, BDRemux 1080p] Dub (Rus.iTunes) + Dub (Ukr) + AVO (Володарский) + Original (Eng) + Sub... 90ytr90
1 | 0

0 | 389

1

07.04.2018 11:02

T Зарубежное кино [HDDVDRip / BDRip / WEB-DL / HDTV 1080/720р] Собачья жизнь / A Dog's Purpose (Лассе Халльстрём) [2017 г., фэнтези, драма, комедия, приключения, семейный, BDRip 720p] Dub (iTunes) + Original makkol
46 | 0

0 | 762

15

24.05.2017 21:50

T Зарубежное кино [HDDVDRip / BDRip / WEB-DL / HDTV 1080/720р] Собачья жизнь / A Dog's Purpose (Лассе Халльстрём) [2017 г., фэнтези, драма, комедия, приключения, семейный, BDRip 1080p] Dub (iTunes) + Original makkol
133 | 0

0 | 1100

20

25.05.2017 13:04

T Зарубежное кино [HDDVDRip / BDRip / WEB-DL / HDTV 1080/720р] Собачья жизнь / A Dog's Purpose (Лассе Халльстрём) [2017 г., фэнтези, драма, комедия, приключения, семейный, BDRip 1080p] Dub (Rus.iTunes) + Dub (Ukr) + AVO (Володарский) + Original (Eng) + Sub (Eng) 90ytr90
5 | 1

0 | 358

7

07.04.2018 10:39

T Зарубежное кино [HDDVDRip / BDRip / WEB-DL / HDTV 1080/720р] Собачья жизнь / A Dog's Purpose (Лассе Халльстрём) [2017 г., фэнтези, драма, комедия, приключения, семейный, BDRip 720p] Dub (Rus.iTunes) + Dub (Ukr) + AVO (Володарский) + Original (Eng) + Sub (Eng) 90ytr90
25 | 0

0 | 347

11

07.04.2018 10:52


Яндекс.Метрика powered by Sphinx


В Н И М А Н И Е
Сайт не распространяет и не хранит электронные версии произведений, а лишь бесплатно и без коммерческой выгоды (не требуя взамен платы,
SMS и т.д.) предоставляет доступ к создаваемому пользователями каталогу ссылок на торрент-файлы, которые содержат только списки хеш-сумм.
Убедительная просьба с жалобами обращаться напрямую к пользователю, разместившему торрент файл.

Вверх