Loading...
Error

Красавица и чудовище / Beauty and the Beast (Билл Кондон / Bill Condon) [2017 г., мюзикл, фэнтези, мелодрама, семейный, BDRemux 1080p] Dub + Original (Eng) + Sub (Rus, Eng)

Статистика раздачи
Размер:  28,81 GB   |    Зарегистрирован:  1 год 1 месяц   |    Скачан:  2 раза

Полного источника не было: 4 месяца 17 дней

Сидов:  0  |  0 KB/s  ]   Личеров:  0  |  0 KB/s  ]

* - сиды/пиры с внешних источников

   
 
Автор Сообщение

90ytr90 

24-Июн-2017 18:44

Красавица и чудовище / Beauty and the Beast
«Вы наш гость»

Страна: США
Год выпуска: 2017
Жанр: мюзикл, фэнтези, мелодрама, семейный
Продолжительность: 02:09:17
Озвучивание:
  • профессиональное (полное дублирование) [лицензия]
  • оригинальная звуковая дорожка [английский]

Режиссёр: Билл Кондон / Bill Condon

В ролях: Эмма Уотсон, Дэн Стивенс, Люк Эванс, Джош Гад, Кевин Клайн, Хэтти Морахэн, Хейдн Гвин, Джерард Хоран, Рэй Фиарон, Юэн МакГрегор


Сюжет фильма:
Обозлённая Волшебница превратила принца Адама в отвратительное чудовище за то, что тот был злым, самовлюблённым и грубым. Чтобы снять чары с себя и слуг своего замка, ему необходимо научиться быть добрым, любить и быть любимым. Произойти это должно до того, как с розы, подаренной Волшебницей, упадёт последний лепесток. В далёкой деревушке живёт красивая девушка по имени Белль. Однажды её отец Морис отправляется на ярмарку, но по дороге сбивается с пути. Оказавшись в заколдованном замке, он становится пленником Чудовища. Белль спешит отцу на помощь...

  • Дата мировой премьеры: 23 февраля 2017
  • Дата российской премьеры: 16 марта 2017, «WDSSPR»
             
Качество видео: BDRemux 1080p
Формат: MKV
Видео: AVC, 1920x1080 (16:9), 26.1 Mbps, 23.976 (24000/1001) fps, 0.525 bit/pixel
Аудио #1: AC3, 640 kbps, 6 ch, 48 kHz, Dub [лицензия]
Аудио #2: DTS-HD MA 7.1, 5174 kbps/1509 kbps, 8 ch/6 ch, 48 kHz, Original [English]
Субтитры: Russian (full), English (full, SDH)
Навигация по главам: есть (24)

Сборка СелезеньS
General
Unique ID : 241248451783850609638432530898560621301 (0xB57EC300EB031BFE99AB1ABA32EE1AF5)
Complete name : F:VideoBeauty.and.the.Beast.2017.BDREMUX.1080p.ExKinoRay.mkv
Format : Matroska
Format version : Version 4 / Version 2
File size : 28.8 GiB
Duration : 2 h 9 min
Overall bit rate mode : Variable
Overall bit rate : 31.9 Mb/s
Encoded date : UTC 2017-06-24 09:51:39
Writing application : mkvmerge v12.0.0 ('Trust / Lust') 64bit
Writing library : libebml v1.3.4 + libmatroska v1.4.5

Video
ID : 1
Format : AVC
Format/Info : Advanced Video Codec
Format profile : High@L4.1
Format settings, CABAC : Yes
Format settings, ReFrames : 3 frames
Format settings, GOP : M=1, N=12
Codec ID : V_MPEG4/ISO/AVC
Duration : 2 h 9 min
Bit rate mode : Variable
Bit rate : 26.1 Mb/s
Maximum bit rate : 35.0 Mb/s
Width : 1 920 pixels
Height : 1 080 pixels
Display aspect ratio : 16:9
Frame rate mode : Constant
Frame rate : 23.976 (24000/1001) FPS
Color space : YUV
Chroma subsampling : 4:2:0
Bit depth : 8 bits
Scan type : Progressive
Bits/(Pixel*Frame) : 0.525
Stream size : 23.6 GiB (82%)
Language : English
Default : Yes
Forced : No

Audio #1
ID : 2
Format : AC-3
Format/Info : Audio Coding 3
Format settings, Endianness : Big
Codec ID : A_AC3
Duration : 2 h 9 min
Bit rate mode : Constant
Bit rate : 640 kb/s
Channel(s) : 6 channels
Channel positions : Front: L C R, Side: L R, LFE
Sampling rate : 48.0 kHz
Frame rate : 31.250 FPS (1536 spf)
Bit depth : 16 bits
Compression mode : Lossy
Stream size : 592 MiB (2%)
Title : Dub [License]
Language : Russian
Service kind : Complete Main
Default : Yes
Forced : No

Audio #2
ID : 3
Format : DTS
Format/Info : Digital Theater Systems
Format profile : MA / Core
Mode : 16
Format settings, Endianness : Big
Codec ID : A_DTS
Duration : 2 h 9 min
Bit rate mode : Variable / Constant
Bit rate : 5 174 kb/s / 1 509 kb/s
Channel(s) : 8 channels / 6 channels
Channel positions : Front: L C R, Side: L R, Back: L R, LFE / Front: L C R, Side: L R, LFE
Sampling rate : 48.0 kHz
Frame rate : 93.750 FPS (512 spf)
Bit depth : 24 bits
Compression mode : Lossless / Lossy
Stream size : 4.67 GiB (16%)
Title : Original
Language : English
Default : No
Forced : No

Text #1
ID : 4
Format : UTF-8
Codec ID : S_TEXT/UTF8
Codec ID/Info : UTF-8 Plain Text
Duration : 2 h 1 min
Bit rate : 77 b/s
Count of elements : 1596
Stream size : 69.4 KiB (0%)
Title : Full
Language : Russian
Default : No
Forced : No

Text #2
ID : 5
Format : UTF-8
Codec ID : S_TEXT/UTF8
Codec ID/Info : UTF-8 Plain Text
Duration : 2 h 8 min
Bit rate : 47 b/s
Count of elements : 1776
Stream size : 44.5 KiB (0%)
Title : Full
Language : English
Default : No
Forced : No

Text #3
ID : 6
Format : UTF-8
Codec ID : S_TEXT/UTF8
Codec ID/Info : UTF-8 Plain Text
Duration : 2 h 8 min
Bit rate : 48 b/s
Count of elements : 1778
Stream size : 45.0 KiB (0%)
Title : SDH
Language : English
Default : No
Forced : No

Menu
00:00:00.000 : en:Chapter 01
00:04:36.276 : en:Chapter 02
00:08:06.527 : en:Chapter 03
00:11:18.260 : en:Chapter 04
00:15:21.545 : en:Chapter 05
00:18:57.386 : en:Chapter 06
00:25:05.921 : en:Chapter 07
00:31:41.566 : en:Chapter 08
00:36:08.708 : en:Chapter 09
00:42:32.258 : en:Chapter 10
00:47:01.318 : en:Chapter 11
00:54:44.990 : en:Chapter 12
01:00:43.556 : en:Chapter 13
01:07:40.931 : en:Chapter 14
01:14:38.223 : en:Chapter 15
01:19:43.695 : en:Chapter 16
01:22:02.751 : en:Chapter 17
01:28:53.369 : en:Chapter 18
01:34:01.302 : en:Chapter 19
01:38:10.175 : en:Chapter 20
01:45:23.692 : en:Chapter 21
01:49:13.964 : en:Chapter 22
01:55:54.197 : en:Chapter 23
01:58:49.497 : en:Chapter 24


picpicpicpicpic
Для увеличения картинки щелкните мышкой по превью

Этот торрент недоступен для скачивания без регистрации, однако доступен по публичной magnet-ссылке (источники с публичных трекеров). Перед использованием ссылки прочтите, пожалуйста Пользовательское соглашение, а также как можно дольше оставайтесь на раздаче! Для того, чтобы скачать сам торрент-файл (который видит больше источников), а также для того, чтобы поблагодарить релизера, вам необходимо зарегистрироваться. Если регистрироваться лень - вы можете также попробовать скачать релиз по нашим партнерским ссылкам ниже. Кроме того, зарегистрированным пользователям не показывается всплывающая реклама при скачивании.

[underverse.me].t84941.torrent
Трекер: Зарегистрирован   [ 24.06.2017 18:44 ]  

Статус: проверено (by 90ytr90 at 24.06.2017 18:49)
Поблагодарили: пока никто не поблагодарил...
Тип торрента: публичный - доступные источники с открытых трекеров: 
Размер: 28,81 GB (занимает 6,58 DVDR, для записи нужно 7 болванок DVDR/RW)
 
 
Похожие темы
Форум Тема Автор Торрент Отв. Посл. сооб.
Зарубежное кино [DVDRip, Low-Res HDRip, и т.д.] Красавица и чудовище / La belle et la bete (Кристоф Ганс) [2014 г., фэнтези, мелодрама, HDRip] Паукан
1 | 0

0 | 1541

90

26.06.2014 13:30

Зарубежное кино [DVDRip, Low-Res HDRip, и т.д.] Красавица и чудовище / Beauty and the Beast (Билл Кондон / Bill Condon) [2017 г., мюзикл, фэнтези, мелодрама, семейный, BDRip] Dub 90ytr90
19 | 2

0 | 503

6

24.06.2017 08:37

Зарубежное кино [DVDRip, Low-Res HDRip, и т.д.] Красавица и чудовище / Beauty and the Beast (Билл Кондон / Bill Condon) [2017 г., мюзикл, фэнтези, мелодрама, семейный, BDRip] Dub 90ytr90
1 | 3

0 | 471

1

24.06.2017 08:42

Зарубежное кино [DVDRip, Low-Res HDRip, и т.д.] Красавица и чудовище / Beauty and the Beast (Билл Кондон / Bill Condon) [2017 г., мюзикл, фэнтези, мелодрама, семейный, BDRip-AVC] Dub + Original (Eng) + Sub (Rus, Eng) 90ytr90
6 | 1

0 | 608

4

24.06.2017 08:43

Зарубежное кино [DVDRip, Low-Res HDRip, и т.д.] Красавица и чудовище / Beauty and the Beast (Билл Кондон / Bill Condon) [2017 г., мюзикл, фэнтези, мелодрама, семейный, BDRip-AVC] Dub + Sub (Rus, Eng) 90ytr90
58 | 3

0 | 569

3

24.06.2017 08:52

Зарубежное кино [DVDRip, Low-Res HDRip, и т.д.] Красавица и чудовище / Beauty and the Beast (Билл Кондон / Bill Condon) [2017 г., мюзикл, фэнтези, мелодрама, семейный, BDRip] Dub 90ytr90
65 | 4

0 | 751

9

24.06.2017 09:24

T Зарубежное кино [DVDRip, Low-Res HDRip, и т.д.] Красавица в клетке / Caged Beauty (Грегори Хатанака / Gregory Hatanaka) [2016 г., драма, WEB-DLRip] MVO 90ytr90
1 | 0

0 | 464

3

30.06.2017 16:15

T Зарубежное кино [DVDRip, Low-Res HDRip, и т.д.] Красавица для чудовища / Mary Shelley (Хайфа Аль-Мансур) [2017 г., драма, мелодрама, биография, WEB-DLRip] Dub (iTunes) makkol
33 | 0

0 | 465

19

31.05.2018 21:18

Зарубежные сериалы Красавица и чудовище / Beauty and the Beast / Сезон: 1 / Серии: 1-22 (22) (Гэри Фледер) [2012 г., Драма, криминал, WEBDLRip] MVO Чертёнок
1 | 0

12 | 7817

8

19.05.2013 17:41

Зарубежные сериалы Красавица и Чудовище / Beauty and the Beast / Сезон 3 (1-13 серии из 13) (Стюарт Гиллард, Рик Бота, Майрзи Алмас) [2015 г., триллер, драма, детектив, фантастика, WEB-DLRip] MVO older
3 | 0

2 | 1264

4

13.09.2015 06:04


Яндекс.Метрика powered by Sphinx


В Н И М А Н И Е
Сайт не распространяет и не хранит электронные версии произведений, а лишь бесплатно и без коммерческой выгоды (не требуя взамен платы,
SMS и т.д.) предоставляет доступ к создаваемому пользователями каталогу ссылок на торрент-файлы, которые содержат только списки хеш-сумм.
Убедительная просьба с жалобами обращаться напрямую к пользователю, разместившему торрент файл.

Вверх