Loading...
Error

Конг: Остров черепа / Kong: Skull Island [2017] ( Джордан Вот-Робертса) [Фантастика, фэнтези, боевик, приключения , ]BDRip 1080p][DD5.1] [Dub Rus, Ukr , Englis + Subs Rus, Ukr , ENG] [Лицензия]

Статистика раздачи
Размер:  15,21 GB   |    Зарегистрирован:  1 год 1 месяц   |    Скачан:  11 раз

Полного источника не было: 5 месяцев 19 дней

Сидов:  0  |  0 KB/s  ]   Личеров:  0  |  0 KB/s  ]

* - сиды/пиры с внешних источников

   
 
Автор Сообщение

Nikolai.Baranov Пол:Муж

26-Июн-2017 09:20



Конг: Остров черепа / Kong: Skull Island




Год выпуска: 2017
Выпущено: США, Вьетнам, Legendary Pictures, Warner Bros. Pictures
Жанр: Фантастика, фэнтези, боевик, приключения
Продолжительность: 01:58:21

Озвучка 1: Дублированный - (Лицензия BD EUR) -Russian

Озвучка 2: Дублированный - - iTunes-Ukrainian

Озвучка 3: Профессиональный многоголосый -English -Оригинал

Субтитры: Russian (Forced, iTunes), Russian (iTunes), Ukrainian (Forced, iTunes), English



IMDB

Режиссер:
Джордан Вот-Робертс

В ролях: Том Хиддлстон, Сэмюэл Л. Джексон, Джон Гудмен, Бри Ларсон, Тянь Цзин, Тоби Кеббелл, Джон Ортис, Кори Хоукинс, Джейсон Митчелл, Ши Уигхэм

На неизвестный остров в Тихом океане попадает команда ученых, военных и искателей приключений. Они вторгаются во владения могучего Конга и тем самым развязывают сражение между человеком и природой. Очень скоро исследовательская миссия превращается в игру на выживание, ее участники вынуждены буквально прорубать себе путь к спасению.




Качество :BDRip 1080p
Формат: MKV
Видео кодек: H264
Видео: 15,0Мбит/сек,1920х1080(16.9),в 29.970кадр/сек,,AVC(Baseline@L5.1)(1Ref Frames)

Аудио #1:AC3 , 640 Kbps, 48.0 KHz, 6 ch- -Дублированный - (Лицензия BD EUR) -Russian

Аудио #2:AC3 , 384 Kbps, 48.0 KHz, 6 ch- -Дублированный- iTunes-Ukrainian

Аудио #3: AC3 , 640 Kbps, 48.0 KHz,6 ch - - English-Английский -Оригинал

Аудио #4:DTS, 1509 Kbps, 48.0 KHz,6 ch - - English-Английский -Оригинал



Общее
Уникальный идентификатор : 171263904155675446864001605540201675797 (0x80D83A676C42A35B805EF6E1BCA4BC15)
Полное имя : C:\ХОББИ\ПИРАТИЯ(PIRATIYA)\КОНГ ОСТРОВ ЧЕРЕПА\Kong_Skull_Island_2017_Rus_Ukr_DUB_Russian_Licensed_Eng_H264_DD5.1_N.B_BDRip_1080p\Kong_Skull_Island_2017_Rus_Ukr_DUB_Russian_Licensed_Eng_H264_DD5.1_N.B_BDRip_1080p.mkv
Формат : Matroska
Версия формата : Version 4 / Version 2
Размер файла : 15,0 Гбайт
Продолжительность : 1 ч. 58 м.
Режим общего битрейта : Переменный
Общий поток : 18,2 Мбит/сек
Название фильма : Kong_Skull_Island_2017_Rus_Ukr_DUB_Russian_Licensed_Eng_H264_DD5.1_N.B_BDRip_1080p
Дата кодирования : UTC 2017-06-25 17:41:23
Программа кодирования : mkvmerge v13.0.0 ('The Juggler') 64bit
Библиотека кодирования : libebml v1.3.4 + libmatroska v1.4.5

Видео
Идентификатор : 1
Формат : AVC
Формат/Информация : Advanced Video Codec
Профиль формата : Baseline@L5.1
Параметр CABAC формата : Нет
Параметр ReFrames формата : 1 кадр
Параметр GOP формата : M=1, N=12
Идентификатор кодека : V_MPEG4/ISO/AVC
Продолжительность : 1 ч. 58 м.
Вид битрейта : Переменный
Битрейт : 15,0 Мбит/сек
Максимальный битрейт : 18,0 Мбит/сек
Ширина : 1920 пикселей
Высота : 1080 пикселей
Соотношение сторон : 16:9
Режим частоты кадров : Постоянный
Частота кадров : 29,970 (29970/1000) кадров/сек
Частота кадров в оригинале : 24,000 кадра/сек
Цветовое пространство : YUV
Субдискретизация насыщенности : 4:2:0
Битовая глубина : 8 бит
Тип развёртки : Прогрессивная
Бит/(Пиксели*Кадры) : 0.241
Размер потока : 12,4 Гбайт (82%)
Заголовок : Kong_Skull_Island_2017_Rus_Ukr_DUB_Russian_Licensed_Eng_H264_DD5.1_N.B_BDRip_1080p
Язык : Russian
Default : Да
Forced : Нет

Аудио #1
Идентификатор : 6
Формат : AC-3
Формат/Информация : Audio Coding 3
Параметр Endianness формата : Big
Идентификатор кодека : A_AC3
Продолжительность : 1 ч. 58 м.
Вид битрейта : Постоянный
Битрейт : 640 Кбит/сек
Каналы : 6 каналов
Расположение каналов : Front: L C R, Side: L R, LFE
Частота : 48,0 КГц
Частота кадров : 31,250 кадров/сек (1536 spf)
Битовая глубина : 16 бит
Метод сжатия : С потерями
Размер потока : 542 Мбайт (4%)
Заголовок : Rus DUB @DD5.1 AC3 ,640 Kbps, 48.0 KHz, 6 ch
Язык : Russian
ServiceKind/String : Complete Main
Default : Да
Forced : Нет

Аудио #2
Идентификатор : 7
Формат : AC-3
Формат/Информация : Audio Coding 3
Параметр Endianness формата : Big
Идентификатор кодека : A_AC3
Продолжительность : 1 ч. 58 м.
Вид битрейта : Постоянный
Битрейт : 384 Кбит/сек
Каналы : 6 каналов
Расположение каналов : Front: L C R, Side: L R, LFE
Частота : 48,0 КГц
Частота кадров : 31,250 кадров/сек (1536 spf)
Битовая глубина : 16 бит
Метод сжатия : С потерями
Размер потока : 325 Мбайт (2%)
Заголовок : Ukr DUB iTuness @DD5.1 AC3 ,384 Kbps, 48.0 KHz, 6 ch
Язык : Ukrainian
ServiceKind/String : Complete Main
Default : Нет
Forced : Нет

Аудио #3
Идентификатор : 8
Формат : AC-3
Формат/Информация : Audio Coding 3
Параметр Endianness формата : Big
Идентификатор кодека : A_AC3
Продолжительность : 1 ч. 58 м.
Вид битрейта : Постоянный
Битрейт : 640 Кбит/сек
Каналы : 6 каналов
Расположение каналов : Front: L C R, Side: L R, LFE
Частота : 48,0 КГц
Частота кадров : 31,250 кадров/сек (1536 spf)
Битовая глубина : 16 бит
Метод сжатия : С потерями
Размер потока : 542 Мбайт (4%)
Заголовок : Original@DD5.1 AC3 ,640 Kbps, 48.0 KHz, 6 ch
Язык : English
ServiceKind/String : Complete Main
Default : Нет
Forced : Нет

Аудио #4
Идентификатор : 9
Формат : DTS
Формат/Информация : Digital Theater Systems
Режим : 16
Параметр Endianness формата : Big
Идентификатор кодека : A_DTS
Продолжительность : 1 ч. 58 м.
Вид битрейта : Постоянный
Битрейт : 1509 Кбит/сек
Каналы : 6 каналов
Расположение каналов : Front: L C R, Side: L R, LFE
Частота : 48,0 КГц
Частота кадров : 93,750 кадра/сек (512 spf)
Битовая глубина : 24 бит
Метод сжатия : С потерями
Размер потока : 1,25 Гбайт (8%)
Заголовок : Original@DTS,1509 Kbps, 48.0 KHz, 6 ch
Язык : English
Default : Нет
Forced : Нет

Текст #1
Идентификатор : 2
Формат : UTF-8
Идентификатор кодека : S_TEXT/UTF8
Идентификатор кодека/Информация : UTF-8 Plain Text
Продолжительность : 1 ч. 57 м.
Битрейт : 3 бит/сек
ElementCount : 66
Размер потока : 3,31 Кбайт (0%)
Заголовок : Rus - Forced
Язык : Russian
Default : Да
Forced : Нет

Текст #2
Идентификатор : 3
Формат : UTF-8
Идентификатор кодека : S_TEXT/UTF8
Идентификатор кодека/Информация : UTF-8 Plain Text
Продолжительность : 1 ч. 57 м.
Битрейт : 76 бит/сек
ElementCount : 1264
Размер потока : 65,3 Кбайт (0%)
Заголовок : Rus
Язык : Russian
Default : Нет
Forced : Нет

Текст #3
Идентификатор : 4
Формат : UTF-8
Идентификатор кодека : S_TEXT/UTF8
Идентификатор кодека/Информация : UTF-8 Plain Text
Продолжительность : 1 ч. 57 м.
Битрейт : 3 бит/сек
ElementCount : 61
Размер потока : 2,72 Кбайт (0%)
Заголовок : Ukr - iTunes - Forced
Язык : Ukrainian
Default : Нет
Forced : Нет

Текст #4
Идентификатор : 5
Формат : UTF-8
Идентификатор кодека : S_TEXT/UTF8
Идентификатор кодека/Информация : UTF-8 Plain Text
Продолжительность : 1 ч. 54 м.
Битрейт : 46 бит/сек
ElementCount : 974
Размер потока : 39,0 Кбайт (0%)
Заголовок : Original
Язык : English
Default : Нет
Forced : Нет

Меню
00:00:00.000 : en:Глава 01 / en:Глава 01 / en:Глава 01 / en:Глава 01 / en:Глава 01 / en:Глава 01 / en:Глава 01 / en:Глава 01 / en:Глава 01










Релиз от: Nikolai.Baranov & PIRATIYA







Этот торрент недоступен для скачивания без регистрации, однако доступен по публичной magnet-ссылке (источники с публичных трекеров). Перед использованием ссылки прочтите, пожалуйста Пользовательское соглашение, а также как можно дольше оставайтесь на раздаче! Для того, чтобы скачать сам торрент-файл (который видит больше источников), а также для того, чтобы поблагодарить релизера, вам необходимо зарегистрироваться. Если регистрироваться лень - вы можете также попробовать скачать релиз по нашим партнерским ссылкам ниже. Кроме того, зарегистрированным пользователям не показывается всплывающая реклама при скачивании.

[underverse.me].t85009.torrent
Трекер: Зарегистрирован   [ 26.06.2017 09:20 ]  

Статус: % на проверке (by 90ytr90 at 26.06.2017 16:08)
Поблагодарили: пока никто не поблагодарил...
Тип торрента: публичный - доступные источники с открытых трекеров: 
Размер: 15,21 GB (занимает 3,47 DVDR, для записи нужно 4 болванки DVDR/RW)
 
 
Похожие темы
Форум Тема Автор Торрент Отв. Посл. сооб.
Зарубежное кино [DVDRip, Low-Res HDRip, и т.д.] Конг: Остров черепа / Kong: Skull Island (Джордан Вот-Робертс / Jordan Vogt-Roberts) [2017 г., фантастика, фэнтези, боевик, приключения, HDRip] Dub + Sub (Rus) 90ytr90
75 | 3

0 | 761

27

23.06.2017 00:07

Зарубежное кино [DVDRip, Low-Res HDRip, и т.д.] Конг: Остров черепа / Kong: Skull Island (Джордан Вот-Робертс / Jordan Vogt-Roberts) [2017 г., фантастика, фэнтези, боевик, приключения, HDRip] Dub + Original (Eng) + Sub (Rus) 90ytr90
9 | 1

0 | 352

2

23.06.2017 00:12

Зарубежное кино [DVDRip, Low-Res HDRip, и т.д.] Конг: Остров черепа / Kong: Skull Island (Джордан Вот-Робертс / Jordan Vogt-Roberts) [2017 г., фантастика, фэнтези, боевик, приключения, HDRip] Dub + Sub (Rus) 90ytr90
42 | 3

0 | 740

3

23.06.2017 08:02

Зарубежное кино [DVDRip, Low-Res HDRip, и т.д.] Конг: Остров черепа / Kong: Skull Island (Джордан Вот-Робертс / Jordan Vogt-Roberts) [2017 г., фантастика, фэнтези, боевик, приключения, BDRip-AVC] Dub + Original (Eng) + Sub (Rus, Eng) 90ytr90
31 | 3

0 | 564

6

26.06.2017 17:07

Зарубежное кино [DVDRip, Low-Res HDRip, и т.д.] Конг: Остров черепа / Kong: Skull Island (Джордан Вот-Робертс / Jordan Vogt-Roberts) [2017 г., фантастика, фэнтези, боевик, приключения, BDRip-AVC] Dub + Sub (Rus) 90ytr90
46 | 5

0 | 610

12

29.06.2017 10:25

Зарубежное кино [DVD / HDDVD / BD / Remux] Конг: Остров черепа / Kong: Skull Island (Джордан Вот-Робертс / Jordan Vogt-Roberts) [2017 г., фантастика, фэнтези, боевик, приключения, BDRemux 1080p] 2xDub (Rus) + 4xAVO (Гаврилов, Сербин, Дохалов,... 90ytr90
1 | 2

2 | 531

8

16.03.2018 17:25

T Зарубежное кино [HDDVDRip / BDRip / WEB-DL / HDTV 1080/720р] Конг: Остров черепа / Kong: Skull Island (Джордан Вот-Робертс) [2017 г., фантастика, фэнтези, боевик, приключения, HDTVRip 1080p] Dub (звук с TS) makkol
5 | 3

0 | 1231

25

07.04.2017 21:56

T Зарубежное кино [HDDVDRip / BDRip / WEB-DL / HDTV 1080/720р] Конг: Остров черепа / Kong: Skull Island (Джордан Вот-Робертс) [2017 г., фантастика, фэнтези, боевик, приключения, HDTVRip 1080p] MVO (Синема УС) makkol
7 | 3

0 | 2681

60

09.04.2017 13:57

T Зарубежное кино [HDDVDRip / BDRip / WEB-DL / HDTV 1080/720р] Конг: Остров черепа / Kong: Skull Island (Джордан Вот-Робертс) [2017 г., фантастика, фэнтези, боевик, приключения, HDTVRip 1080p] Dub (Line) makkol
3 | 2

0 | 1782

38

23.04.2017 22:20

T Зарубежное кино [HDDVDRip / BDRip / WEB-DL / HDTV 1080/720р] Конг: Остров черепа / Kong: Skull Island (Джордан Вот-Робертс) [2017 г., фантастика, фэнтези, боевик, приключения, WEB-DL 1080p] Dub (iTunes) + Original + Sub makkol
41 | 2

0 | 905

29

20.06.2017 21:29

90ytr90 

26-Июн-2017 16:16

Цитата:

Аудио #1:AC3 , 640 Kbps, 48.0 KHz, 6 ch- -Дублированный - (Лицензия BD EUR) -Russian
Откуда дровишки?

Лицензия BD EUR писал(а):

Dolby Digital Audio Russian 448 kbps 5.1 / 48 kHz / 448 kbps


файлы писал(а):

  1. Kong_Skull_Island_2017_Rus_Ukr_DUB_Russian_Licensed_Eng_H264_DD5.1_N.B_BDRip_1080p (1)-053.mkv 150.79 MB (158115288)
  2. Kong_Skull_Island_2017_Rus_Ukr_DUB_Russian_Licensed_Eng_H264_DD5.1_N.B_BDRip_1080p.mkv 15.01 GB (16120769633)
  3. PIRATIYA.mkv 51.69 MB (54201420)
Со 2 позицией все понятно, 1 и 3 это что, собственно?

24-Май-2018 22:43

Топик был перенесен из форума Зарубежное кино [DVD / HDDVD / BD / Remux] в форум Архив (зарубежное кино высокого качества)


[cron robot]
 

Яндекс.Метрика powered by Sphinx


В Н И М А Н И Е
Сайт не распространяет и не хранит электронные версии произведений, а лишь бесплатно и без коммерческой выгоды (не требуя взамен платы,
SMS и т.д.) предоставляет доступ к создаваемому пользователями каталогу ссылок на торрент-файлы, которые содержат только списки хеш-сумм.
Убедительная просьба с жалобами обращаться напрямую к пользователю, разместившему торрент файл.

Вверх