Loading...
Error

Тайна пиратских сокровищ / Piratskattens hemlighet / The Lost Treasure of Aquila (1 сезон, 1-24 серии из 24) (Анна Закриссон) [2014 г., семейный, приключения, WEB-DL 720p] MVO (Игмар) + Original

Статистика раздачи
Размер:  6,4 GB   |    Зарегистрирован:  1 год 5 месяцев   |    Скачан:  4 раза

Полного источника не было: 37 минут

Сидов:  0  |  0 KB/s  ]   Личеров:  0  |  0 KB/s  ]

* - сиды/пиры с внешних источников

   
 
Автор Сообщение

makkol Пол:Муж

08-Июл-2017 11:08

Тайна пиратских сокровищ / Piratskattens hemlighet / The Lost Treasure of Aquila


Год выпуска: 2014
Жанр: семейный, приключения
Производство: Швеция [Kinorama, Sveriges Television (SVT), Tre Vänner Produktion]
Режиссер: Анна Закриссон
В ролях: Александра Бресчи, Бастер Айситт, Лиа Стоянов, Аманда Оомс, Мирья Турестедт, Питер Эггерс, Михалис Куцогианнакис, Гёран Энгман, Кристоффер Нурденрут
Сюжет фильма:
Сэм и Минна вместе со своей мамой Евой решают отпраздновать Рождество с родственниками — тетей Анной и ее дочерью Бьянкой. Семейство отправляется на побережье Орхидей. Во время прогулки дети видят обломки старого корабля, которые волны выбросили на берег. Старый Иво рассказывает Сэму, Минне и Бьянке, что в давние времена недалеко от берега здесь затонул корабль пиратов, на борту которого были сокровища...

  • Мировая премьера: 1 декабря 2014


Качество видео: WEB-DL 720p

Продолжительность: 24 x ~00:12:00
Формат: MKV
Видео: MPEG-4 AVC, 1280x720 (16:9), 25.000 fps, 2700 kbps
Аудио #1: русский, профессиональный многоголосый закадровый (Игмар), AC3 2.0, 48 kHz, 192 kbps
Аудио #2: шведский, оригинал, AC3 2.0, 48 kHz, 192 kbps

Код:

Формат                                   : Matroska
Версия формата                           : Version 4 / Version 2
Размер файла                             : 272 Мбайт
Продолжительность                        : 12 м.
Режим общего битрейта                    : Постоянный
Общий поток                              : 3024 Кбит/сек
Дата кодирования                         : UTC 2017-03-14 10:40:45
Программа кодирования                    : mkvmerge v7.9.0 ('Birds') 64bit
Библиотека кодирования                   : libebml v1.3.1 + libmatroska v1.4.2

Видео
Идентификатор                            : 1
Формат                                   : AVC
Формат/Информация                        : Advanced Video Codec
Профиль формата                          : High@L3.1
Параметр CABAC формата                   : Да
Параметр ReFrames формата                : 4 кадра
Параметр GOP формата                     : M=2, N=50
Идентификатор кодека                     : V_MPEG4/ISO/AVC
Продолжительность                        : 12 м.
Вид битрейта                             : Постоянный
Битрейт                                  : 2700 Кбит/сек
Ширина                                   : 1280 пикселей
Высота                                   : 720 пикселей
Соотношение сторон                       : 16:9
Режим частоты кадров                     : Постоянный
Частота кадров                           : 25,000 кадров/сек
Цветовое пространство                    : YUV
Субдискретизация насыщенности            : 4:2:0
Битовая глубина                          : 8 бит
Тип развёртки                            : Прогрессивная
Бит/(Пиксели*Кадры)                      : 0.117
Размер потока                            : 232 Мбайт (85%)
Default                                  : Да
Forced                                   : Нет

Аудио #1
Идентификатор                            : 2
Формат                                   : AC-3
Формат/Информация                        : Audio Coding 3
Расширение режима                        : CM (complete main)
Параметр Endianness формата              : Big
Идентификатор кодека                     : A_AC3
Продолжительность                        : 12 м.
Вид битрейта                             : Постоянный
Битрейт                                  : 192 Кбит/сек
Каналы                                   : 2 канала
Расположение каналов                     : Front: L R
Частота                                  : 48,0 КГц
Метод сжатия                             : С потерями
Размер потока                            : 17,3 Мбайт (6%)
Язык                                     : Russian
Default                                  : Да
Forced                                   : Нет

Аудио #2
Идентификатор                            : 3
Формат                                   : AC-3
Формат/Информация                        : Audio Coding 3
Расширение режима                        : CM (complete main)
Параметр Endianness формата              : Big
Идентификатор кодека                     : A_AC3
Продолжительность                        : 12 м.
Вид битрейта                             : Постоянный
Битрейт                                  : 192 Кбит/сек
Каналы                                   : 2 канала
Расположение каналов                     : Front: L R
Частота                                  : 48,0 КГц
Метод сжатия                             : С потерями
Размер потока                            : 17,3 Мбайт (6%)
Язык                                     : Swedish
Default                                  : Нет
Forced                                   : Нет
picpicpicpicpic
Для увеличения картинки щелкните мышкой по превью

Этот торрент недоступен для скачивания без регистрации, однако доступен по публичной magnet-ссылке (источники с публичных трекеров). Перед использованием ссылки прочтите, пожалуйста Пользовательское соглашение, а также как можно дольше оставайтесь на раздаче! Для того, чтобы скачать сам торрент-файл (который видит больше источников), а также для того, чтобы поблагодарить релизера, вам необходимо зарегистрироваться. Если регистрироваться лень - вы можете также попробовать скачать релиз по нашим партнерским ссылкам ниже. Кроме того, зарегистрированным пользователям не показывается всплывающая реклама при скачивании.

[underverse.me].t85803.torrent
Трекер: Зарегистрирован   [ 08.10.2017 21:12 ]  

Статус: проверено (by makkol at 08.10.2017 21:13)
Поблагодарили: 2 человека
Тип торрента: публичный - доступные источники с открытых трекеров: 
Размер: 6,4 GB (занимает 1,46 DVDR, для записи нужно 2 болванки DVDR/RW)
 
 

Яндекс.Метрика powered by Sphinx


В Н И М А Н И Е
Сайт не распространяет и не хранит электронные версии произведений, а лишь бесплатно и без коммерческой выгоды (не требуя взамен платы,
SMS и т.д.) предоставляет доступ к создаваемому пользователями каталогу ссылок на торрент-файлы, которые содержат только списки хеш-сумм.
Убедительная просьба с жалобами обращаться напрямую к пользователю, разместившему торрент файл.

Вверх