Loading...
Error

(Avant-Garde Jazz, Improvised Music) Han Bennink Trio - Adelante (2017) [FLAC (Tracks+.CUE), lossless]

Статистика раздачи
Размер:  269 MB   |    Зарегистрирован:  11 месяцев   |    Скачан:  2 раза

Полного источника не было: 1 месяц 6 дней

Сидов:  0  |  0 KB/s  ]   Личеров:  0  |  0 KB/s  ]

* - сиды/пиры с внешних источников

   
 
Автор Сообщение

Darkferse Пол:Жен

11-Сен-2017 21:00

Han Bennink Trio - Adelante

Жанр: Avant-Garde Jazz, Improvised Music
Год выпуска: 2017
Источник: CD
Производитель: Instant Composers Pool - ICP 056
Аудиокодек: FLAC
Тип рипа: Tracks+.CUE
Битрейт: lossless
Продолжительность: 00:48:33

Треклист:

01. Gordijn 0:09
02. Supertyphoon 3:32
03. Comacina Dreamin' 5:10
04. Adelante 1 6:07
05. De sprong o romantiek der hazen 4:51
06. Peer's Counting Song 4:35
07. My Melancholy Baby 3:48
08. March of the Supermoon 4:46
09. Waterzooi 5:20
10. Op sinjoorke 3:42
11. Wuustwezelstomp 4:40
12. Boontje 1:21
13. Adelante 2 4:13
Exact Audio Copy V1.3 from 2. September 2016

EAC extraction logfile from 29. May 2017, 2:21

Han Bennink Trio / Adelante

Used drive : HL-DT-STBDDVDRW GBC-H20L Adapter: 1 ID: 0

Read mode : Secure
Utilize accurate stream : Yes
Defeat audio cache : Yes
Make use of C2 pointers : No

Read offset correction : 667
Overread into Lead-In and Lead-Out : No
Fill up missing offset samples with silence : Yes
Delete leading and trailing silent blocks : No
Null samples used in CRC calculations : Yes
Used interface : Native Win32 interface for Win NT & 2000
Gap handling : Appended to previous track

Used output format : User Defined Encoder
Selected bitrate : 768 kBit/s
Quality : High
Add ID3 tag : No
Command line compressor : C:\Program Files (x86)\Exact Audio Copy\FLAC\FLAC.EXE
Additional command line options : -8 -e -p -V -T "ARTIST=%artist%" -T "TITLE=%title%" -T "ALBUM=%albumtitle%" -T "DATE=%year%" -T "TRACKNUMBER=%tracknr%" -T "GENRE=%genre%" -T "PERFORMER=%albuminterpret%" -T "COMPOSER=%composer%" %haslyrics%--tag-from-file=LYRICS="%lyricsfile%"%haslyrics% -T "ALBUMARTIST=%albumartist%" -T "DISCNUMBER=%cdnumber%" -T "TOTALDISCS=%totalcds%" -T "TOTALTRACKS=%numtracks%" -T "COMMENT=%comment%" %source% -o %dest%

TOC of the extracted CD

Track | Start | Length | Start sector | End sector
---------------------------------------------------------
1 | 0:00.00 | 0:07.26 | 0 | 550
2 | 0:07.26 | 3:12.66 | 551 | 15016
3 | 3:20.17 | 5:11.18 | 15017 | 38359
4 | 8:31.35 | 6:06.26 | 38360 | 65835
5 | 14:37.61 | 4:46.60 | 65836 | 87345
6 | 19:24.46 | 4:33.50 | 87346 | 107870
7 | 23:58.21 | 3:48.29 | 107871 | 124999
8 | 27:46.50 | 4:45.19 | 125000 | 146393
9 | 32:31.69 | 5:23.66 | 146394 | 170684
10 | 37:55.60 | 3:34.09 | 170685 | 186743
11 | 41:29.69 | 4:40.30 | 186744 | 207773
12 | 46:10.24 | 1:21.01 | 207774 | 213849
13 | 47:31.25 | 4:14.47 | 213850 | 232946

Track 1

Filename Z:\media\rips\Han Bennink Trio - Adelante\01 Gordijn.wav

Pre-gap length 0:00:02.00

Peak level 48.6 %
Extraction speed 0.7 X
Track quality 100.0 %
Test CRC 704486AA
Copy CRC 704486AA
Track not present in AccurateRip database
Copy OK

Track 2

Filename Z:\media\rips\Han Bennink Trio - Adelante\02 Supertyphoon.wav

Peak level 99.1 %
Extraction speed 3.8 X
Track quality 99.9 %
Test CRC 93DF2C3B
Copy CRC 93DF2C3B
Track not present in AccurateRip database
Copy OK

Track 3

Filename Z:\media\rips\Han Bennink Trio - Adelante\03 Comacina Dreamin'.wav

Peak level 96.9 %
Extraction speed 5.3 X
Track quality 100.0 %
Test CRC 2B35ED37
Copy CRC 2B35ED37
Track not present in AccurateRip database
Copy OK

Track 4

Filename Z:\media\rips\Han Bennink Trio - Adelante\04 Adelante 1.wav

Pre-gap length 0:00:00.53

Peak level 96.6 %
Extraction speed 6.0 X
Track quality 100.0 %
Test CRC 1E7C14D7
Copy CRC 1E7C14D7
Track not present in AccurateRip database
Copy OK

Track 5

Filename Z:\media\rips\Han Bennink Trio - Adelante\05 De Sprong O Romantiek Der Hazen.wav

Peak level 98.2 %
Extraction speed 5.6 X
Track quality 99.9 %
Test CRC A1C7C74E
Copy CRC A1C7C74E
Track not present in AccurateRip database
Copy OK

Track 6

Filename Z:\media\rips\Han Bennink Trio - Adelante\06 Peer's Counting Song.wav

Peak level 99.9 %
Extraction speed 6.7 X
Track quality 100.0 %
Test CRC 4D43094B
Copy CRC 4D43094B
Track not present in AccurateRip database
Copy OK

Track 7

Filename Z:\media\rips\Han Bennink Trio - Adelante\07 My Melancholy Baby.wav

Peak level 99.9 %
Extraction speed 5.8 X
Track quality 99.9 %
Test CRC F925B733
Copy CRC F925B733
Track not present in AccurateRip database
Copy OK

Track 8

Filename Z:\media\rips\Han Bennink Trio - Adelante\08 March of The Supermoon.wav

Peak level 98.5 %
Extraction speed 7.4 X
Track quality 100.0 %
Test CRC 6B384771
Copy CRC 6B384771
Track not present in AccurateRip database
Copy OK

Track 9

Filename Z:\media\rips\Han Bennink Trio - Adelante\09 Waterzooi.wav

Peak level 97.8 %
Extraction speed 7.7 X
Track quality 100.0 %
Test CRC 8294B4CF
Copy CRC 8294B4CF
Track not present in AccurateRip database
Copy OK

Track 10

Filename Z:\media\rips\Han Bennink Trio - Adelante\10 Op Sinjoorke.wav

Pre-gap length 0:00:03.85

Peak level 97.9 %
Extraction speed 6.6 X
Track quality 99.9 %
Test CRC EDAB16AA
Copy CRC EDAB16AA
Track not present in AccurateRip database
Copy OK

Track 11

Filename Z:\media\rips\Han Bennink Trio - Adelante\11 Wuustwezelstomp.wav

Pre-gap length 0:00:01.00

Peak level 100.0 %
Extraction speed 8.0 X
Track quality 100.0 %
Test CRC 07227C5C
Copy CRC 07227C5C
Track not present in AccurateRip database
Copy OK

Track 12

Filename Z:\media\rips\Han Bennink Trio - Adelante\12 Boontje.wav

Peak level 97.3 %
Extraction speed 4.6 X
Track quality 99.8 %
Test CRC 8364455F
Copy CRC 8364455F
Track not present in AccurateRip database
Copy OK

Track 13

Filename Z:\media\rips\Han Bennink Trio - Adelante\13 Adelante 2.wav

Peak level 98.2 %
Extraction speed 7.6 X
Track quality 99.9 %
Test CRC A33545DE
Copy CRC A33545DE
Track not present in AccurateRip database
Copy OK

None of the tracks are present in the AccurateRip database

No errors occurred

End of status report

==== Log checksum B61AF4906FA5C4106BB98DAE6346FBBC77D68636456C000CD5873725A1F7694E ====
REM GENRE Avantgarde
REM DATE 2017
REM DISCID B40C210D
REM COMMENT "ExactAudioCopy v1.3"
PERFORMER "Han Bennink Trio"
TITLE "Adelante"
REM COMPOSER ""
FILE "01 Gordijn.wav" WAVE
TRACK 01 AUDIO
TITLE "Gordijn"
PERFORMER "Han Bennink Trio"
REM COMPOSER ""
INDEX 01 00:00:00
FILE "02 Supertyphoon.wav" WAVE
TRACK 02 AUDIO
TITLE "Supertyphoon"
PERFORMER "Han Bennink Trio"
REM COMPOSER ""
INDEX 01 00:00:00
FILE "03 Comacina Dreamin'.wav" WAVE
TRACK 03 AUDIO
TITLE "Comacina Dreamin'"
PERFORMER "Han Bennink Trio"
REM COMPOSER ""
INDEX 01 00:00:00
TRACK 04 AUDIO
TITLE "Adelante 1"
PERFORMER "Han Bennink Trio"
REM COMPOSER ""
INDEX 00 05:10:53
FILE "04 Adelante 1.wav" WAVE
INDEX 01 00:00:00
FILE "05 De Sprong O Romantiek Der Hazen.wav" WAVE
TRACK 05 AUDIO
TITLE "De Sprong O Romantiek Der Hazen"
PERFORMER "Han Bennink Trio"
REM COMPOSER ""
INDEX 01 00:00:00
FILE "06 Peer's Counting Song.wav" WAVE
TRACK 06 AUDIO
TITLE "Peer's Counting Song"
PERFORMER "Han Bennink Trio"
REM COMPOSER ""
INDEX 01 00:00:00
FILE "07 My Melancholy Baby.wav" WAVE
TRACK 07 AUDIO
TITLE "My Melancholy Baby"
PERFORMER "Han Bennink Trio"
REM COMPOSER ""
INDEX 01 00:00:00
FILE "08 March of The Supermoon.wav" WAVE
TRACK 08 AUDIO
TITLE "March of The Supermoon"
PERFORMER "Han Bennink Trio"
REM COMPOSER ""
INDEX 01 00:00:00
FILE "09 Waterzooi.wav" WAVE
TRACK 09 AUDIO
TITLE "Waterzooi"
PERFORMER "Han Bennink Trio"
REM COMPOSER ""
INDEX 01 00:00:00
TRACK 10 AUDIO
TITLE "Op Sinjoorke"
PERFORMER "Han Bennink Trio"
REM COMPOSER ""
INDEX 00 05:20:02
FILE "10 Op Sinjoorke.wav" WAVE
INDEX 01 00:00:00
TRACK 11 AUDIO
TITLE "Wuustwezelstomp"
PERFORMER "Han Bennink Trio"
REM COMPOSER ""
INDEX 00 03:33:09
FILE "11 Wuustwezelstomp.wav" WAVE
INDEX 01 00:00:00
FILE "12 Boontje.wav" WAVE
TRACK 12 AUDIO
TITLE "Boontje"
PERFORMER "Han Bennink Trio"
REM COMPOSER ""
INDEX 01 00:00:00
FILE "13 Adelante 2.wav" WAVE
TRACK 13 AUDIO
TITLE "Adelante 2"
PERFORMER "Han Bennink Trio"
REM COMPOSER ""
INDEX 01 00:00:00

Этот торрент недоступен для скачивания без регистрации, однако доступен по публичной magnet-ссылке (источники с публичных трекеров). Перед использованием ссылки прочтите, пожалуйста Пользовательское соглашение, а также как можно дольше оставайтесь на раздаче! Для того, чтобы скачать сам торрент-файл (который видит больше источников), а также для того, чтобы поблагодарить релизера, вам необходимо зарегистрироваться. Если регистрироваться лень - вы можете также попробовать скачать релиз по нашим партнерским ссылкам ниже. Кроме того, зарегистрированным пользователям не показывается всплывающая реклама при скачивании.

[underverse.me].t88591.torrent
Трекер: Зарегистрирован   [ 11.09.2017 21:00 ]  

Статус: проверено (by Darkferse at 11.09.2017 21:01)
Поблагодарили: пока никто не поблагодарил...
Тип торрента: публичный - доступные источники с открытых трекеров: 
Размер: 269 MB (занимает 0,06 DVDR, для записи нужно 1 болванка DVDR/RW)
 
 
Похожие темы
Форум Тема Автор Торрент Отв. Посл. сооб.
Зарубежный Black, Death, Heavy, Thrash, Power, Folk, Gothic Metal (Avant-Garde Metal) Selcouth - Heart Is The Star Of Chaos (2017) [MP3, 320 kbps CBR] Darkferse
3 | 0

0 | 355

1

01.09.2017 18:59

Зарубежный Black, Death, Heavy, Thrash, Power, Folk, Gothic Metal (Avant-Garde Metal, Swing Revival, Jazz Metal) Diablo Swing Orchestra - Pacifisticuffs (2017) [MP3, 320 kbps CBR] Darkferse
1 | 0

0 | 971

4

08.12.2017 01:12

Зарубежный Black, Death, Heavy, Thrash, Power, Folk, Gothic Metal (Avant-garde Metal, Alternative) Ideamen - Trained When We're Young (2017) [MP3, 320 kbps CBR] Darkferse
2 | 0

0 | 323

1

07.01.2018 09:54

Experimental, Minimal, 8-bit (Avant-Garde, Experimental) Itchy-O - From The Overflowing (2017) [MP3, 320 kbps CBR] Darkferse
2 | 1

0 | 555

2

14.09.2017 10:22

Jazz (Avant-Garde Jazz) Timucin Sahin's Flow State - Nothing Bad Can Happen (2017) [MP3, 320 kbps CBR] Darkferse
2 | 0

0 | 462

1

16.06.2017 14:12

Jazz (Avant-Garde Jazz, Experimental) Tristan Honsinger, Nicolas Caloia & Joshua Zubot - In The Sea (2017) [MP3, 320 kbps CBR] Darkferse
1 | 0

0 | 370

1

21.06.2017 09:06

Jazz (Avant-Garde Jazz, Post-Bop) Matt Wilson - Honey And Salt (2017) [MP3, 320 kbps CBR] Darkferse
2 | 0

0 | 418

1

27.08.2017 06:36

Jazz (Avant-garde Jazz, Free Improvisation, World Fusion) Joshua Abrams & Natural Information Society - Simultonality (2017) [MP3, 320 kbps CBR] Darkferse
2 | 3

0 | 339

3

12.09.2017 09:12


Яндекс.Метрика powered by Sphinx


В Н И М А Н И Е
Сайт не распространяет и не хранит электронные версии произведений, а лишь бесплатно и без коммерческой выгоды (не требуя взамен платы,
SMS и т.д.) предоставляет доступ к создаваемому пользователями каталогу ссылок на торрент-файлы, которые содержат только списки хеш-сумм.
Убедительная просьба с жалобами обращаться напрямую к пользователю, разместившему торрент файл.

Вверх