Loading...
Error

(Авторская песня) Игорь Растеряев - Дождь над Медведицей (2016) [FLAC (Image+.Cue), Lossless]

Статистика раздачи
Размер:  200 MB   |    Зарегистрирован:  10 месяцев   |    Скачан:  10 раз

Полного источника не было: 15 дней

Сидов:  0  |  0 KB/s  ]   Личеров:  0  |  0 KB/s  ]

* - сиды/пиры с внешних источников

   
 
Автор Сообщение

Бишеп Пол:Муж

13-Окт-2017 12:48

Игорь Растеряев - Дождь над Медведицей

Жанр: Авторская песня
Год выпуска: 2016
Источник: CD
Производитель диска: И. Растеряев ‎– none
Аудиокодек: FLAC
Тип рипа: Image+.CUE
Битрейт аудио: lossless
Продолжительность: 00:33:31


Треклист:
01. Гармонь
02. Песня о детстве
03. Поезд
04. Песня ангелов-хранителей
05. Конь
06. Проводы
07. Молодой
08. Бой
09. Кореш
10. Дождь над Медведицей
11. Дед Агван (стих)

Код:

Exact Audio Copy V1.3 from 2. September 2016

Отчёт EAC об извлечении, выполненном 10. ноября 2016, 10:19

Игорь Растеряев / Дождь над Медведицей

Дисковод: ATAPI   iHAS124   W   Adapter: 1  ID: 0

Режим чтения                 : Достоверность
Использование точного потока : Да
Отключение кэша аудио        : Да
Использование указателей C2  : Нет

Коррекция смещения при чтении                     : 48
Способность читать области Lead-in и Lead-out     : Нет
Заполнение пропущенных сэмплов тишиной            : Да
Удаление блоков с тишиной в начале и конце        : Нет
При вычислениях CRC использовались нулевые сэмплы : Да
Интерфейс                                         : Встроенный Win32-интерфейс для Win NT/2000

Выходной формат          : Пользовательский кодировщик
Выбранный битрейт        : 896 kBit/s
Качество                 : Высокий
Добавление ID3-тега      : Нет
Утилита сжатия           : C:\Users\Администратор\Desktop\FLAC + APE\FLAC + APE\flac.exe
Дополнительные параметры : -V -8 -T "Date=%year%" -T "Genre=%genre%" %source%

TOC извлечённого CD

     Трек |   Старт  | Длительность | Начальный сектор | Конечный сектор
    ---------------------------------------------------------------------
       1  |  0:00.00 |    2:38.46   |           0      |      11895     
       2  |  2:38.46 |    3:06.00   |       11896      |      25845     
       3  |  5:44.46 |    3:04.63   |       25846      |      39708     
       4  |  8:49.34 |    2:40.23   |       39709      |      51731     
       5  | 11:29.57 |    3:09.14   |       51732      |      65920     
       6  | 14:38.71 |    2:21.06   |       65921      |      76501     
       7  | 17:00.02 |    2:29.50   |       76502      |      87726     
       8  | 19:29.52 |    2:56.00   |       87727      |     100926     
       9  | 22:25.52 |    3:33.55   |      100927      |     116956     
      10  | 25:59.32 |    4:07.29   |      116957      |     135510     
      11  | 30:06.61 |    3:24.28   |      135511      |     150838     

Характеристики диапазона извлечения и сообщения об ошибках

Выбранный диапазон

     Имя файла C:\Users\Администратор\Desktop\FLAC + APE\FLAC + APE\Новая папка\Игорь Растеряев - Дождь над Медведицей.wav

     Пиковый уровень 99.1 %
     Скорость извлечения 2.9 X
     Качество диапазона 100.0 %
     CRC теста DADAD630
     CRC копии DADAD630
     Копирование... OK

Ошибок не произошло

Конец отчёта

---- CUETools DB Plugin V2.1.6

[CTDB TOCID: YPJiEzfbmaBBA6NwT6nH_BzfYlk-] found
Submit result: YPJiEzfbmaBBA6NwT6nH_BzfYlk- has been confirmed
Track | CTDB Status
  1   | (1/1) Accurately ripped
  2   | (1/1) Accurately ripped
  3   | (1/1) Accurately ripped
  4   | (1/1) Accurately ripped
  5   | (1/1) Accurately ripped
  6   | (1/1) Accurately ripped
  7   | (1/1) Accurately ripped
  8   | (1/1) Accurately ripped
  9   | (1/1) Accurately ripped
 10   | (1/1) Accurately ripped
 11   | (1/1) Accurately ripped

==== Контрольная сумма отчёта 31925F6C61245E3852DB1432B682BEB649A1F208156F6C6C445AC3CCB293566C ====

Код:

REM GENRE "Авторская песня"
REM DATE 2016
REM DISCID 7B07DB0B
REM COMMENT "ExactAudioCopy v1.3"
PERFORMER "Игорь Растеряев"
TITLE "Дождь над Медведицей"
REM COMPOSER ""
FILE "Игорь Растеряев - Дождь над Медведицей.flac" WAVE
  TRACK 01 AUDIO
    TITLE "Гармонь"
    PERFORMER "Игорь Растеряев"
    REM COMPOSER ""
    INDEX 01 00:00:00
  TRACK 02 AUDIO
    TITLE "Песня о детстве"
    PERFORMER "Игорь Растеряев"
    REM COMPOSER ""
    INDEX 00 02:36:46
    INDEX 01 02:38:46
  TRACK 03 AUDIO
    TITLE "Поезд"
    PERFORMER "Игорь Растеряев"
    REM COMPOSER ""
    INDEX 00 05:42:46
    INDEX 01 05:44:46
  TRACK 04 AUDIO
    TITLE "Песня ангелов-хранителей"
    PERFORMER "Игорь Растеряев"
    REM COMPOSER ""
    INDEX 00 08:47:34
    INDEX 01 08:49:34
  TRACK 05 AUDIO
    TITLE "Конь"
    PERFORMER "Игорь Растеряев"
    REM COMPOSER ""
    INDEX 00 11:27:57
    INDEX 01 11:29:57
  TRACK 06 AUDIO
    TITLE "Проводы"
    PERFORMER "Игорь Растеряев"
    REM COMPOSER ""
    INDEX 00 14:36:71
    INDEX 01 14:38:71
  TRACK 07 AUDIO
    TITLE "Молодой"
    PERFORMER "Игорь Растеряев"
    REM COMPOSER ""
    INDEX 00 16:58:02
    INDEX 01 17:00:02
  TRACK 08 AUDIO
    TITLE "Бой"
    PERFORMER "Игорь Растеряев"
    REM COMPOSER ""
    INDEX 00 19:27:52
    INDEX 01 19:29:52
  TRACK 09 AUDIO
    TITLE "Кореш"
    PERFORMER "Игорь Растеряев"
    REM COMPOSER ""
    INDEX 00 22:23:52
    INDEX 01 22:25:52
  TRACK 10 AUDIO
    TITLE "Дождь над Медведицей"
    PERFORMER "Игорь Растеряев"
    REM COMPOSER ""
    INDEX 00 25:57:32
    INDEX 01 25:59:32
  TRACK 11 AUDIO
    TITLE "Дед Агван (стих) "
    PERFORMER "Игорь Растеряев"
    REM COMPOSER ""
    INDEX 00 30:04:61
    INDEX 01 30:06:61

Этот торрент недоступен для скачивания без регистрации, однако доступен по публичной magnet-ссылке (источники с публичных трекеров). Перед использованием ссылки прочтите, пожалуйста Пользовательское соглашение, а также как можно дольше оставайтесь на раздаче! Для того, чтобы скачать сам торрент-файл (который видит больше источников), а также для того, чтобы поблагодарить релизера, вам необходимо зарегистрироваться. Если регистрироваться лень - вы можете также попробовать скачать релиз по нашим партнерским ссылкам ниже. Кроме того, зарегистрированным пользователям не показывается всплывающая реклама при скачивании.

[underverse.me].t89968.torrent
Трекер: Зарегистрирован   [ 13.10.2017 12:48 ]  

Статус: проверено (by Бишеп at 13.10.2017 12:48)
Поблагодарили: 1 человек
Тип торрента: публичный - доступные источники с открытых трекеров: 
Размер: 200 MB (занимает 0,04 DVDR, для записи нужно 1 болванка DVDR/RW)
 
 
Похожие темы
Форум Тема Автор Торрент Отв. Посл. сооб.
Авторские песни, Барды (Авторская песня) Владимир Высоцкий - Полная коллекция (2009) [MP3, 320 kbps] Добрый жмот
9 | 2

11 | 5925

83

31.07.2013 07:22

Авторские песни, Барды (Авторская песня) Тимур Шаов - О чем молчал Герасим... (2010) [MP3, 320 kbps] KonKoSerg
9 | 0

4 | 2633

26

24.08.2013 06:03

Авторские песни, Барды (Авторская песня) Татьяна и Сергей Никитины - Городок, что я выдумал (2011) [MP3, 320 kbps] KonKoSerg
2 | 0

1 | 2931

41

11.05.2013 10:18

Авторские песни, Барды (Авторская песня) Владимир Высоцкий - Дискография [22 СD] (2001-2007) [MP3, 320 CBR] vovanig
1 | 1

2 | 3583

60

07.08.2014 19:18

Авторские песни, Барды (Авторская песня) Семён Слепаков - Альбом 1 (2012) [MP3, 320 kbps CBR] Бишеп
1 | 0

1 | 2084

54

11.05.2013 07:53

Авторские песни, Барды (Авторская песня, Фолк) Никола Емелин (Емеля) - Дискография (6 альбомов) (1989 - 2011) [MP3, 64-320 kbps] gregsib
27 | 3

1 | 2100

25

05.07.2013 18:48

Авторские песни, Барды (Авторская песня) Вячеслав Мясников (Уральские пельмени) - Сборник песен (2014) [MP3, 128-320 kbps CBR] terra07
1 | 0

1 | 2737

43

09.12.2015 14:37

Авторские песни, Барды (Авторская песня) Владимир Высоцкий - Спасибо, что живой. Песни из кинофильма... - и не только (2012) [MP3, 320 kbps CBR] valera87
1 | 0

0 | 1280

8

14.03.2015 16:31

Авторские песни, Барды (Lossless) (Авторская песня) Владимир Высоцкий - Grand Collection. Часть 1 / Часть 2 (2004) [FLAC (Tracks+.CUE), lossless] garry
0 | 0

1 | 1874

15

21.04.2012 07:06

# Авторские песни, Барды (Lossless) (Авторская песня) Евгений Баранник - На Прорезной (2010) [FLAC (Tracks+.CUE), lossless] garry
0 | 0

0 | 2446

2

20.02.2012 18:25


Яндекс.Метрика powered by Sphinx


В Н И М А Н И Е
Сайт не распространяет и не хранит электронные версии произведений, а лишь бесплатно и без коммерческой выгоды (не требуя взамен платы,
SMS и т.д.) предоставляет доступ к создаваемому пользователями каталогу ссылок на торрент-файлы, которые содержат только списки хеш-сумм.
Убедительная просьба с жалобами обращаться напрямую к пользователю, разместившему торрент файл.

Вверх