Loading...
Error

(Pop, Pop Rock) Simply Red - Stars (Japan) (1991) [FLAC (Image+.Cue) Lossless]

Статистика раздачи
Размер:  656 MB   |    Зарегистрирован:  10 месяцев   |    Скачан:  2 раза

Полного источника не было: 2 дня 5 часов

Сидов:  0  |  0 KB/s  ]   Личеров:  0  |  0 KB/s  ]

* - сиды/пиры с внешних источников

   
 
Автор Сообщение

Бишеп Пол:Муж

18-Окт-2017 18:15

Simply Red - Stars (Japan)

Жанр: Pop, Pop Rock
Год выпуска: 1991
Источник: CD
Производитель диска: EastWest - WMC5-440
Аудиокодек: FLAC
Тип рипа: Image+.CUE
Битрейт аудио: lossless
Продолжительность: 00:41:18


Треклист:
01. Something Got Me Started
02. Stars
03. Thrill Me
04. Your Mirror
05. She's Got It Bad
06. For Your Babies
07. Model
08. How Could I Fall
09. Freedom
10. Wonderland

Код:

Exact Audio Copy V0.99 prebeta 5 from 4. May 2009

EAC extraction logfile from 18. September 2010, 16:21

Simply Red / Stars

Used drive  : PIONEER DVD-RW  DVR-112D   Adapter: 2  ID: 0

Read mode               : Secure
Utilize accurate stream : Yes
Defeat audio cache      : Yes
Make use of C2 pointers : No

Read offset correction                      : 48
Overread into Lead-In and Lead-Out          : No
Fill up missing offset samples with silence : Yes
Delete leading and trailing silent blocks   : No
Null samples used in CRC calculations       : Yes
Used interface                              : Installed external ASPI interface

Used output format              : User Defined Encoder
Selected bitrate                : 1024 kBit/s
Quality                         : High
Add ID3 tag                     : No
Command line compressor         : C:\Program Files (x86)\Exact Audio Copy\Flac\flac.exe
Additional command line options : -5 -V -T "ARTIST=%a" -T "TITLE=%t" -T "ALBUM=%g" -T "DATE=%y" -T "TRACKNUMBER=%n" -T "GENRE=%m" -T "COMMENT=EAC FLAC -5" %s

TOC of the extracted CD

     Track |   Start  |  Length  | Start sector | End sector
    ---------------------------------------------------------
        1  |  0:00.00 |  4:00.57 |         0    |    18056   
        2  |  4:00.57 |  4:08.13 |     18057    |    36669   
        3  |  8:08.70 |  5:04.02 |     36670    |    59471   
        4  | 13:12.72 |  3:59.70 |     59472    |    77466   
        5  | 17:12.67 |  3:33.65 |     77467    |    93506   
        6  | 20:46.57 |  4:17.20 |     93507    |   112801   
        7  | 25:04.02 |  3:46.43 |    112802    |   129794   
        8  | 28:50.45 |  4:45.45 |    129795    |   151214   
        9  | 33:36.15 |  3:52.22 |    151215    |   168636   
       10  | 37:28.37 |  3:49.35 |    168637    |   185846   

Range status and errors

Selected range

     Filename F:\Simply Red - Stars - 1991 (Japan)\Simply Red - Stars.wav

     Peak level 100.0 %
     Range quality 100.0 %
     Test CRC F9A72ABC
     Copy CRC F9A72ABC
     Copy OK

No errors occurred

 
AccurateRip summary
 
Track  1  accurately ripped (confidence 3)  [E21F6811]
Track  2  accurately ripped (confidence 3)  [04EA46F8]
Track  3  accurately ripped (confidence 3)  [B4FC2A28]
Track  4  accurately ripped (confidence 3)  [F5319211]
Track  5  accurately ripped (confidence 3)  [9BDE373D]
Track  6  accurately ripped (confidence 3)  [97D17006]
Track  7  accurately ripped (confidence 3)  [CD574771]
Track  8  accurately ripped (confidence 3)  [EA107747]
Track  9  accurately ripped (confidence 3)  [8C12E27E]
Track 10  accurately ripped (confidence 3)  [54D4D860]
 
All tracks accurately ripped

End of status report

Код:

REM GENRE Pop
REM DATE 1991
REM DISCID 6F09AD0A
REM COMMENT "ExactAudioCopy v0.99pb5"
PERFORMER "Simply Red"
TITLE "Stars"
FILE "Simply Red - Stars.flac" WAVE
  TRACK 01 AUDIO
    TITLE "Something Got Me Started"
    PERFORMER "Simply Red"
    INDEX 01 00:00:00
  TRACK 02 AUDIO
    TITLE "Stars"
    PERFORMER "Simply Red"
    INDEX 01 04:00:57
  TRACK 03 AUDIO
    TITLE "Thrill Me"
    PERFORMER "Simply Red"
    INDEX 01 08:08:70
  TRACK 04 AUDIO
    TITLE "Your Mirror"
    PERFORMER "Simply Red"
    INDEX 01 13:12:72
  TRACK 05 AUDIO
    TITLE "She's Got It Bad"
    PERFORMER "Simply Red"
    INDEX 01 17:12:67
  TRACK 06 AUDIO
    TITLE "For Your Babies"
    PERFORMER "Simply Red"
    INDEX 01 20:46:57
  TRACK 07 AUDIO
    TITLE "Model"
    PERFORMER "Simply Red"
    INDEX 01 25:04:02
  TRACK 08 AUDIO
    TITLE "How Could I Fall"
    PERFORMER "Simply Red"
    INDEX 01 28:50:45
  TRACK 09 AUDIO
    TITLE "Freedom"
    PERFORMER "Simply Red"
    INDEX 01 33:36:15
  TRACK 10 AUDIO
    TITLE "Wonderland"
    PERFORMER "Simply Red"
    INDEX 01 37:28:37

Этот торрент недоступен для скачивания без регистрации, однако доступен по публичной magnet-ссылке (источники с публичных трекеров). Перед использованием ссылки прочтите, пожалуйста Пользовательское соглашение, а также как можно дольше оставайтесь на раздаче! Для того, чтобы скачать сам торрент-файл (который видит больше источников), а также для того, чтобы поблагодарить релизера, вам необходимо зарегистрироваться. Если регистрироваться лень - вы можете также попробовать скачать релиз по нашим партнерским ссылкам ниже. Кроме того, зарегистрированным пользователям не показывается всплывающая реклама при скачивании.

[underverse.me].t90217.torrent
Трекер: Зарегистрирован   [ 18.10.2017 18:15 ]  

Статус: проверено (by Бишеп at 18.10.2017 18:15)
Поблагодарили: пока никто не поблагодарил...
Тип торрента: публичный - доступные источники с открытых трекеров: 
Размер: 656 MB (занимает 0,15 DVDR, для записи нужно 1 болванка DVDR/RW)
 
 
Похожие темы
Форум Тема Автор Торрент Отв. Посл. сооб.
Зарубежная Pop Музыка (Pop, Pop Rock) Pink - The Truth About Love Tour. Live From Melbourne (2013) [MP3, 320 kbps] 90ytr90
5 | 0

0 | 672

2

11.11.2016 21:58

Зарубежная Pop Музыка (Pop, Pop Latin, Pop-Rock) Thalia - Amore Mio (Deluxe Edition) (2014) [MP3, 320 kbps] 90ytr90
3 | 0

0 | 860

2

17.03.2015 18:30

Зарубежная Pop Музыка (Pop, Pop Rock) Michael Learns To Rock - Still (2018) [MP3, 320 kbps CBR] 90ytr90
21 | 5

0 | 424

2

08.04.2018 05:59

Зарубежная Pop Музыка (Pop, Pop Rock) Robbie Williams - Greatest Hits (2CD) (2010) [MP3, 320 kbps CBR] 90ytr90
15 | 6

0 | 180

10

16.07.2018 18:24

Зарубежная Поп Музыка (Lossless) (Pop, Pop Rock) Roxette - Look Sharp! (1988) [FLAC (Image+.Cue), Lossless] Бишеп
2 | 0

0 | 1038

12

23.11.2016 18:11

Зарубежная Поп Музыка (Lossless) (Pop, Pop Rock) Gilbert O'Sullivan - I'm A Writer, Not A Fighter (2012) [FLAC (Image+.Cue), Lossless] Бишеп
2 | 0

0 | 865

2

15.11.2016 20:53

Зарубежная Поп Музыка (Lossless) (Pop, Pop Rock, New Wave) Nena - Oldschool (2015) [FLAC (tracks), lossless] Web Бишеп
2 | 0

0 | 755

4

15.11.2016 20:25

Зарубежная Поп Музыка (Lossless) (Pop, Pop Rock) Adriano Celentano - 20 Greatest Hits (2005) [FLAC (Tracks+.CUE), Lossless] Бишеп
1 | 0

0 | 1990

26

01.05.2013 15:35

Зарубежная Поп Музыка (Lossless) (Pop, Pop Rock, Soft Rock) Lenka - Shadows (2013) [FLAC (Tracks+.CUE), Lossless] Бишеп
1 | 3

0 | 751

6

08.12.2014 12:36

Зарубежная Поп Музыка (Lossless) (Pop, Pop Rock) ABBA - Arrival (1984) [FLAC (Image+.CUE), Lossless] Бишеп
5 | 5

0 | 1118

10

09.12.2014 13:42


Яндекс.Метрика powered by Sphinx


В Н И М А Н И Е
Сайт не распространяет и не хранит электронные версии произведений, а лишь бесплатно и без коммерческой выгоды (не требуя взамен платы,
SMS и т.д.) предоставляет доступ к создаваемому пользователями каталогу ссылок на торрент-файлы, которые содержат только списки хеш-сумм.
Убедительная просьба с жалобами обращаться напрямую к пользователю, разместившему торрент файл.

Вверх