Loading...
Error

Человек будущего / Future Man [сезон 1 \ серии 01-13 (13)] (Ниша Ганатра, Эван Голдберг, Сет Роген, ...) [2017 г., фантастика, комедия, WEBRip] MVO (ColdFilm)

Статистика раздачи
Размер:  4,74 GB   |    Зарегистрирован:  1 год   |    Скачан:  28 раз

Полного источника не было: 1 день 3 часа

Сидов:  0  |  0 KB/s  ]   Личеров:  0  |  0 KB/s  ]

* - сиды/пиры с внешних источников

   
 
Автор Сообщение

90ytr90 

16-Ноя-2017 06:19

Человек будущего / Future Man [S01]

Страна: США
Год выпуска: 2017
Жанр: фантастика, комедия
Продолжительность: 13 х ~00:35:00
Озвучивание: любительское (многоголосое закадровое) [ColdFilm]
Режиссёр: Ниша Ганатра, Эван Голдберг, Сет Роген, ...

В ролях: Джош Хатчерсон, Дерек Уилсон, Эд Бегли мл., Дрю Джеймс, Мэри Манофски, Роберт Крэйгхед, Джейсон Скотт Дженкинс, Кевин Калибер


Сюжет фильма:
Главный герой всё ещё живёт с родителями и подрабатывает в исследовательском центре «Девлин», специализирующемся на сексуальных дисфункциях. Из-за болезненного периода полового созревания у Джоша низкая самооценка и плохо развиты коммуникативные навыки, поэтому юноша часто теряется в общении с женщинами. Единственное, в чём преуспевает герой, — это видеоигра Cybergeddon, действие которой происходит в мрачном будущем, где его персонаж, Человек из будущего, занимает высокую социальную позицию. Когда Джош проходит последний уровень, ему наносят визит персонажи Cybergeddon, утверждающие, что игра была всего лишь тренингом и что теперь герой избран для того, чтобы совершить путешествие в прошлое и помочь им спасти мир. Готов ли Джош к этому. . ? Конечно, нет...

  • Дата мировой премьеры: 14 ноября 2017
             
Качество видео: WEBRip
Формат: AVI
Видео: FMP4, 720x400 (16:9), ~1485 kbps, ~23.976 fps, 0.043 bit/pixel
Аудио: MP3, 192 kbps, 2 ch, 44.1 kHz, MVO [ColdFilm]

General
Complete name : Future Man S01Future Man S01E01.avi
Format : AVI
Format/Info : Audio Video Interleave
File size : 377 MiB
Duration : 30mn 54s
Overall bit rate : 1 708 Kbps
Writing application : Lavf57.40.101

Video
ID : 1
Format : MPEG-4 Visual
Format settings, BVOP : No
Format settings, QPel : No
Format settings, GMC : No warppoints
Format settings, Matrix : Default (H.263)
Codec ID : FMP4
Duration : 30mn 53s
Bit rate : 1 485 Kbps
Width : 720 pixels
Height : 400 pixels
Display aspect ratio : 16:9
Frame rate mode : Variable
Frame rate : 119.880 (24/30) fps
Minimum frame rate : 23.976 fps
Maximum frame rate : 29.970 fps
Color space : YUV
Chroma subsampling : 4:2:0
Bit depth : 8 bits
Scan type : Progressive
Compression mode : Lossy
Bits/(Pixel*Frame) : 0.043
Stream size : 328 MiB (87%)
Writing library : Lavc57.48.101

Audio
ID : 0
Format : MPEG Audio
Format version : Version 1
Format profile : Layer 3
Mode : Joint stereo
Mode extension : MS Stereo
Codec ID : 55
Codec ID/Hint : MP3
Duration : 30mn 54s
Bit rate mode : Constant
Bit rate : 192 Kbps
Channel(s) : 2 channels
Sampling rate : 44.1 KHz
Compression mode : Lossy
Stream size : 42.4 MiB (11%)
Alignment : Aligned on interleaves
Interleave, duration : 8 ms (1.00 video frame)
Внимание, присутствует реклама!

pic pic pic
Для увеличения картинки щелкните мышкой по превью



pic pic pic pic pic pic

Этот торрент недоступен для скачивания без регистрации, однако доступен по публичной magnet-ссылке (источники с публичных трекеров). Перед использованием ссылки прочтите, пожалуйста Пользовательское соглашение, а также как можно дольше оставайтесь на раздаче! Для того, чтобы скачать сам торрент-файл (который видит больше источников), а также для того, чтобы поблагодарить релизера, вам необходимо зарегистрироваться. Если регистрироваться лень - вы можете также попробовать скачать релиз по нашим партнерским ссылкам ниже. Кроме того, зарегистрированным пользователям не показывается всплывающая реклама при скачивании.

[underverse.me].t91487.torrent
Трекер: Зарегистрирован   [ 16.11.2017 06:19 ]  

Статус: T временная (by 90ytr90 at 16.11.2017 06:20)
Поблагодарили: 2 человека
Тип торрента: публичный - доступные источники с открытых трекеров: 
Размер: 4,74 GB (занимает 1,08 DVDR, для записи нужно 2 болванки DVDR/RW)
 
 
Похожие темы
Форум Тема Автор Торрент Отв. Посл. сооб.
Зарубежное кино [DVDRip, Low-Res HDRip, и т.д.] Человек будущего / O Homem do Futuro (Клаудио Торрес) [2011 г., фэнтези, комедия, HDRip] VO + Original (Por) RG NewCinema
1 | 0

0 | 1025

59

08.11.2012 16:35


Яндекс.Метрика powered by Sphinx


В Н И М А Н И Е
Сайт не распространяет и не хранит электронные версии произведений, а лишь бесплатно и без коммерческой выгоды (не требуя взамен платы,
SMS и т.д.) предоставляет доступ к создаваемому пользователями каталогу ссылок на торрент-файлы, которые содержат только списки хеш-сумм.
Убедительная просьба с жалобами обращаться напрямую к пользователю, разместившему торрент файл.

Вверх