Loading...
Error

Каратель / The Punisher [сезон 1 / серии 1-13 (13)] (Энди Годдард, Марк Йобст, Кари Скогланд) [2017 г., фантастика, боевик, триллер, драма, криминал, приключения, WEBRip] MVO (ColdFilm)

Статистика раздачи
Размер:  7,93 GB   |    Зарегистрирован:  9 месяцев   |    Скачан:  43 раза
Сидов:  1  |  0 KB/s  ]   Личеров:  0  |  0 KB/s  ]

* - сиды/пиры с внешних источников

   
 
Автор Сообщение

90ytr90 

18-Ноя-2017 13:13

Каратель / The Punisher [S01]

Страна: США
Год выпуска: 2017
Жанр: фантастика, боевик, триллер, драма, криминал, приключения
Продолжительность: 13х ~00:52:00
Озвучивание: любительское (многоголосое закадровое) [ColdFilm]
Режиссёр: Энди Годдард, Марк Йобст, Кари Скогланд

В ролях: Бен Барнс, Джон Бернтал, Джейсон Р. Мур, Эбон Мосс-Бакрак, Майкл Натансон, Джейми Рэй Ньюман, Эмбер Роуз Рева, Пол Шульц


Сюжет фильма:
После того, как семья Фрэнка Касла была убита во время перестрелки нескольких банд Нью-Йорка, он решает отомстить и начинает охоту на преступников города. В преступном мире он становится известен как Каратель...

  • Дата мировой премьеры: 6 ноября 2017
             
Качество видео: WEBRip
Формат: AVI
Видео: FMP4, 720x400 (16:9), ~1403 kbps, ~23.976 fps, 0, 041 bit/pixel
Аудио: MP3, 192 kbps, 2 ch, 44.1 kHz, MVO [ColdFilm]

General
Complete name : The PunisherThe_Punisher_S01E01.avi
Format : AVI
Format/Info : Audio Video Interleave
File size : 602 MiB
Duration : 51mn 45s
Overall bit rate : 1 626 Kbps
Writing application : Lavf57.40.101

Video
ID : 1
Format : MPEG-4 Visual
Format settings, BVOP : No
Format settings, QPel : No
Format settings, GMC : No warppoints
Format settings, Matrix : Default (H.263)
Codec ID : FMP4
Duration : 51mn 44s
Bit rate : 1 403 Kbps
Width : 720 pixels
Height : 400 pixels
Display aspect ratio : 16:9
Frame rate mode : Variable
Frame rate : 119.880 (24/30) fps
Minimum frame rate : 23.976 fps
Maximum frame rate : 29.970 fps
Color space : YUV
Chroma subsampling : 4:2:0
Bit depth : 8 bits
Scan type : Progressive
Compression mode : Lossy
Bits/(Pixel*Frame) : 0.041
Stream size : 519 MiB (86%)
Writing library : Lavc57.48.101

Audio
ID : 0
Format : MPEG Audio
Format version : Version 1
Format profile : Layer 3
Mode : Joint stereo
Mode extension : MS Stereo
Codec ID : 55
Codec ID/Hint : MP3
Duration : 51mn 45s
Bit rate mode : Constant
Bit rate : 192 Kbps
Channel(s) : 2 channels
Sampling rate : 44.1 KHz
Compression mode : Lossy
Stream size : 71.1 MiB (12%)
Alignment : Aligned on interleaves
Interleave, duration : 8 ms (1.00 video frame)
Внимание, присутствует реклама!

pic pic pic
Для увеличения картинки щелкните мышкой по превью


pic pic pic pic pic pic

Этот торрент недоступен для скачивания без регистрации, однако доступен по публичной magnet-ссылке (источники с публичных трекеров). Перед использованием ссылки прочтите, пожалуйста Пользовательское соглашение, а также как можно дольше оставайтесь на раздаче! Для того, чтобы скачать сам торрент-файл (который видит больше источников), а также для того, чтобы поблагодарить релизера, вам необходимо зарегистрироваться. Если регистрироваться лень - вы можете также попробовать скачать релиз по нашим партнерским ссылкам ниже. Кроме того, зарегистрированным пользователям не показывается всплывающая реклама при скачивании.

[underverse.me].t91600.torrent
Трекер: Зарегистрирован   [ 18.11.2017 13:13 ]  

Статус: T временная (by 90ytr90 at 18.11.2017 13:15)
Поблагодарили: пока никто не поблагодарил...
Тип торрента: публичный - доступные источники с открытых трекеров: 
Размер: 7,93 GB (занимает 1,81 DVDR, для записи нужно 2 болванки DVDR/RW)
 
 
Похожие темы
Форум Тема Автор Торрент Отв. Посл. сооб.
Зарубежное кино HQ Каратель / The Punisher (Джонатан Хенсли) [2004 г., боевик, триллер, драма, криминал, BDRip] Dub HQ Underverse HQ Underverse
3 | 0

0 | 1983

57

23.02.2013 22:33

# Комиксы Каратель / Punisher [1975-2010 г., comics, CBR, CBZ, PDF] Eng garry
2 | 1

0 | 1747

1

04.08.2010 07:24


Яндекс.Метрика powered by Sphinx


В Н И М А Н И Е
Сайт не распространяет и не хранит электронные версии произведений, а лишь бесплатно и без коммерческой выгоды (не требуя взамен платы,
SMS и т.д.) предоставляет доступ к создаваемому пользователями каталогу ссылок на торрент-файлы, которые содержат только списки хеш-сумм.
Убедительная просьба с жалобами обращаться напрямую к пользователю, разместившему торрент файл.

Вверх