Loading...
Error

(Trip Hop, Electronic) Sevdaliza - Ison (2017) [FLAC (Tracks+.CUE), lossless]

Статистика раздачи
Размер:  378 MB   |    Зарегистрирован:  10 месяцев   |    Скачан:  1 раз

Полного источника не было: 2 дня 21 час

Сидов:  0  |  0 KB/s  ]   Личеров:  0  |  0 KB/s  ]

* - сиды/пиры с внешних источников

   
 
Автор Сообщение

Darkferse Пол:Жен

13-Дек-2017 01:15

Sevdaliza - Ison

Жанр: Trip Hop, Electronic
Страна: Netherlands
Год выпуска: 2017
Источник: CD
Производитель: Butler Records - BUR-340030
Аудиокодек: FLAC
Тип рипа: Tracks+.CUE
Битрейт: lossless
Продолжительность: 01:06:04

Треклист:

01. Shahmaran
02. Libertine
03. Marilyn Monroe
04. Hubris
05. Amandine Insensible
06. Hero
07. Scarlette
08. Bluecid
09. Loves Way
10. Human
11. Do You Feel Real
12. The Language of Limbo
13. Replaceable
14. Grace
15. When I Reside
16. Angel

Код:

Exact Audio Copy V1.3 from 2. September 2016

EAC extraction logfile from 28. November 2017, 3:00

Sevdaliza / Ison

Used drive  : ASUS    DRW-24D5MT   Adapter: 1  ID: 0

Read mode               : Secure
Utilize accurate stream : Yes
Defeat audio cache      : Yes
Make use of C2 pointers : No

Read offset correction                      : 6
Overread into Lead-In and Lead-Out          : No
Fill up missing offset samples with silence : Yes
Delete leading and trailing silent blocks   : No
Null samples used in CRC calculations       : Yes
Used interface                              : Native Win32 interface for Win NT & 2000
Gap handling                                : Appended to previous track

Used output format              : User Defined Encoder
Selected bitrate                : 768 kBit/s
Quality                         : High
Add ID3 tag                     : No
Command line compressor         : C:\Program Files\Exact Audio Copy\FLAC\FLAC.EXE
Additional command line options : -6 -V -T "ARTIST=%artist%" -T "TITLE=%title%" -T "ALBUM=%albumtitle%" -T "DATE=%year%" -T "TRACKNUMBER=%tracknr%" -T "GENRE=%genre%" -T "COMMENT=%comment%" -T "BAND=%albuminterpret%" -T "ALBUMARTIST=%albuminterpret%" -T "COMPOSER=%composer%" %haslyrics%--tag-from-file=LYRICS="%lyricsfile%"%haslyrics% -T "DISCNUMBER=%cdnumber%" -T "TOTALDISCS=%totalcds%" -T "TOTALTRACKS=%numtracks%" %hascover%--picture="%coverfile%"%hascover% %source% -o %dest%

TOC of the extracted CD

     Track |   Start  |  Length  | Start sector | End sector
    ---------------------------------------------------------
        1  |  0:00.00 |  5:04.13 |         0    |    22812
        2  |  5:04.13 |  3:49.03 |     22813    |    39990
        3  |  8:53.16 |  3:29.01 |     39991    |    55666
        4  | 12:22.17 |  4:05.01 |     55667    |    74042
        5  | 16:27.18 |  4:15.03 |     74043    |    93170
        6  | 20:42.21 |  4:00.05 |     93171    |   111175
        7  | 24:42.26 |  3:25.02 |    111176    |   126552
        8  | 28:07.28 |  4:29.69 |    126553    |   146796
        9  | 32:37.22 |  6:54.31 |    146797    |   177877
       10  | 39:31.53 |  3:12.02 |    177878    |   192279
       11  | 42:43.55 |  2:29.70 |    192280    |   203524
       12  | 45:13.50 |  3:47.20 |    203525    |   220569
       13  | 49:00.70 |  3:54.69 |    220570    |   238188
       14  | 52:55.64 |  3:56.44 |    238189    |   255932
       15  | 56:52.33 |  2:19.31 |    255933    |   266388
       16  | 59:11.64 |  7:02.74 |    266389    |   298112

Track  1

     Filename E:\EAC-RIPS\Sevdaliza - Ison (2017)[BUR-340030][FLAC]\01 Shahmaran.wav

     Pre-gap length  0:00:02.00

     Peak level 96.6 %
     Extraction speed 1.2 X
     Track quality 100.0 %
     Test CRC 19A783FD
     Copy CRC 19A783FD
     Track not present in AccurateRip database
     Copy OK

Track  2

     Filename E:\EAC-RIPS\Sevdaliza - Ison (2017)[BUR-340030][FLAC]\02 Libertine.wav

     Peak level 96.5 %
     Extraction speed 1.1 X
     Track quality 99.9 %
     Test CRC 6DC3D4E9
     Copy CRC 6DC3D4E9
     Track not present in AccurateRip database
     Copy OK

Track  3

     Filename E:\EAC-RIPS\Sevdaliza - Ison (2017)[BUR-340030][FLAC]\03 Marilyn Monroe.wav

     Peak level 96.2 %
     Extraction speed 1.4 X
     Track quality 100.0 %
     Test CRC 9A2E7855
     Copy CRC 9A2E7855
     Track not present in AccurateRip database
     Copy OK

Track  4

     Filename E:\EAC-RIPS\Sevdaliza - Ison (2017)[BUR-340030][FLAC]\04 Hubris.wav

     Peak level 96.5 %
     Extraction speed 1.3 X
     Track quality 99.9 %
     Test CRC 995BD74B
     Copy CRC 995BD74B
     Track not present in AccurateRip database
     Copy OK

Track  5

     Filename E:\EAC-RIPS\Sevdaliza - Ison (2017)[BUR-340030][FLAC]\05 Amandine Insensible.wav

     Peak level 88.2 %
     Extraction speed 1.6 X
     Track quality 100.0 %
     Test CRC 3D752705
     Copy CRC 3D752705
     Track not present in AccurateRip database
     Copy OK

Track  6

     Filename E:\EAC-RIPS\Sevdaliza - Ison (2017)[BUR-340030][FLAC]\06 Hero.wav

     Peak level 96.5 %
     Extraction speed 1.6 X
     Track quality 100.0 %
     Test CRC BB452AA8
     Copy CRC BB452AA8
     Track not present in AccurateRip database
     Copy OK

Track  7

     Filename E:\EAC-RIPS\Sevdaliza - Ison (2017)[BUR-340030][FLAC]\07 Scarlette.wav

     Peak level 96.6 %
     Extraction speed 1.7 X
     Track quality 100.0 %
     Test CRC 3CF2A25B
     Copy CRC 3CF2A25B
     Track not present in AccurateRip database
     Copy OK

Track  8

     Filename E:\EAC-RIPS\Sevdaliza - Ison (2017)[BUR-340030][FLAC]\08 Bluecid.wav

     Peak level 96.7 %
     Extraction speed 1.6 X
     Track quality 99.9 %
     Test CRC BE3BF80D
     Copy CRC BE3BF80D
     Track not present in AccurateRip database
     Copy OK

Track  9

     Filename E:\EAC-RIPS\Sevdaliza - Ison (2017)[BUR-340030][FLAC]\09 Loves Way.wav

     Peak level 96.6 %
     Extraction speed 2.0 X
     Track quality 100.0 %
     Test CRC 00A68691
     Copy CRC 00A68691
     Track not present in AccurateRip database
     Copy OK

Track 10

     Filename E:\EAC-RIPS\Sevdaliza - Ison (2017)[BUR-340030][FLAC]\10 Human.wav

     Peak level 96.6 %
     Extraction speed 1.9 X
     Track quality 100.0 %
     Test CRC 2C23957E
     Copy CRC 2C23957E
     Track not present in AccurateRip database
     Copy OK

Track 11

     Filename E:\EAC-RIPS\Sevdaliza - Ison (2017)[BUR-340030][FLAC]\11 Do You Feel Real.wav

     Peak level 96.6 %
     Extraction speed 1.9 X
     Track quality 100.0 %
     Test CRC 2D4B10BD
     Copy CRC 2D4B10BD
     Track not present in AccurateRip database
     Copy OK

Track 12

     Filename E:\EAC-RIPS\Sevdaliza - Ison (2017)[BUR-340030][FLAC]\12 The Language Of Limbo.wav

     Peak level 97.3 %
     Extraction speed 2.1 X
     Track quality 100.0 %
     Test CRC 2497033F
     Copy CRC 2497033F
     Track not present in AccurateRip database
     Copy OK

Track 13

     Filename E:\EAC-RIPS\Sevdaliza - Ison (2017)[BUR-340030][FLAC]\13 Replaceable.wav

     Peak level 96.6 %
     Extraction speed 2.1 X
     Track quality 100.0 %
     Test CRC E2D701F1
     Copy CRC E2D701F1
     Track not present in AccurateRip database
     Copy OK

Track 14

     Filename E:\EAC-RIPS\Sevdaliza - Ison (2017)[BUR-340030][FLAC]\14 Grace.wav

     Peak level 96.5 %
     Extraction speed 2.2 X
     Track quality 100.0 %
     Test CRC E16496B1
     Copy CRC E16496B1
     Track not present in AccurateRip database
     Copy OK

Track 15

     Filename E:\EAC-RIPS\Sevdaliza - Ison (2017)[BUR-340030][FLAC]\15 When I Reside.wav

     Peak level 96.6 %
     Extraction speed 1.7 X
     Track quality 99.9 %
     Test CRC E6935860
     Copy CRC E6935860
     Track not present in AccurateRip database
     Copy OK

Track 16

     Filename E:\EAC-RIPS\Sevdaliza - Ison (2017)[BUR-340030][FLAC]\16 Angel (Bonus).wav

     Peak level 99.9 %
     Extraction speed 2.3 X
     Track quality 99.9 %
     Test CRC A779CD3C
     Copy CRC A779CD3C
     Track not present in AccurateRip database
     Copy OK

None of the tracks are present in the AccurateRip database

No errors occurred

End of status report

---- CUETools DB Plugin V2.1.6

[CTDB TOCID: nHLpkAbvgdOzP.3xYVuW36apvIo-] found
Submit result: nHLpkAbvgdOzP.3xYVuW36apvIo- has been confirmed
Track | CTDB Status
  1   | (10/10) Accurately ripped
  2   | (10/10) Accurately ripped
  3   | (10/10) Accurately ripped
  4   | (10/10) Accurately ripped
  5   | (10/10) Accurately ripped
  6   | (10/10) Accurately ripped
  7   | (10/10) Accurately ripped
  8   | (10/10) Accurately ripped
  9   | (10/10) Accurately ripped
 10   | (10/10) Accurately ripped
 11   | (10/10) Accurately ripped
 12   | (10/10) Accurately ripped
 13   | (10/10) Accurately ripped
 14   | (10/10) Accurately ripped
 15   | (10/10) Accurately ripped
 16   | (10/10) Accurately ripped

==== Log checksum 1456ABB249F65DF03BFCBC8E9C07C7C25389B5BD7607F116873D6A858664AE98 ====

Код:

REM GENRE Pop
REM DATE 2017
REM DISCID FC0F8610
REM COMMENT "ExactAudioCopy v1.3"
CATALOG 8718627225608
PERFORMER "Sevdaliza"
TITLE "Ison"
REM COMPOSER ""
FILE "01 Shahmaran.wav" WAVE
  TRACK 01 AUDIO
    TITLE "Shahmaran"
    PERFORMER "Sevdaliza"
    REM COMPOSER ""
    ISRC NLE3U1700004
    INDEX 01 00:00:00
FILE "02 Libertine.wav" WAVE
  TRACK 02 AUDIO
    TITLE "Libertine"
    PERFORMER "Sevdaliza"
    REM COMPOSER ""
    ISRC NLE3U1700005
    INDEX 01 00:00:00
FILE "03 Marilyn Monroe.wav" WAVE
  TRACK 03 AUDIO
    TITLE "Marilyn Monroe"
    PERFORMER "Sevdaliza"
    REM COMPOSER ""
    ISRC NLE3U1500007
    INDEX 01 00:00:00
FILE "04 Hubris.wav" WAVE
  TRACK 04 AUDIO
    TITLE "Hubris"
    PERFORMER "Sevdaliza"
    REM COMPOSER ""
    ISRC NLE3U1700003
    INDEX 01 00:00:00
FILE "05 Amandine Insensible.wav" WAVE
  TRACK 05 AUDIO
    TITLE "Amandine Insensible"
    PERFORMER "Sevdaliza"
    REM COMPOSER ""
    ISRC NLE3U1500014
    INDEX 01 00:00:00
FILE "06 Hero.wav" WAVE
  TRACK 06 AUDIO
    TITLE "Hero"
    PERFORMER "Sevdaliza"
    REM COMPOSER ""
    ISRC NLE3U1700002
    INDEX 01 00:00:00
FILE "07 Scarlette.wav" WAVE
  TRACK 07 AUDIO
    TITLE "Scarlette"
    PERFORMER "Sevdaliza"
    REM COMPOSER ""
    ISRC NLE3U1700006
    INDEX 01 00:00:00
FILE "08 Bluecid.wav" WAVE
  TRACK 08 AUDIO
    TITLE "Bluecid"
    PERFORMER "Sevdaliza"
    REM COMPOSER ""
    ISRC NLE3U1700006
    INDEX 01 00:00:00
FILE "09 Loves Way.wav" WAVE
  TRACK 09 AUDIO
    TITLE "Loves Way"
    PERFORMER "Sevdaliza"
    REM COMPOSER ""
    ISRC NLE3U1700008
    INDEX 01 00:00:00
FILE "10 Human.wav" WAVE
  TRACK 10 AUDIO
    TITLE "Human"
    PERFORMER "Sevdaliza"
    REM COMPOSER ""
    ISRC NLE3U1500017
    INDEX 01 00:00:00
FILE "11 Do You Feel Real.wav" WAVE
  TRACK 11 AUDIO
    TITLE "Do You Feel Real?"
    PERFORMER "Sevdaliza"
    REM COMPOSER ""
    ISRC NLE3U1700009
    INDEX 01 00:00:00
FILE "12 The Language Of Limbo.wav" WAVE
  TRACK 12 AUDIO
    TITLE "The Language Of Limbo"
    PERFORMER "Sevdaliza"
    REM COMPOSER ""
    ISRC NLE3U1600001
    INDEX 01 00:00:00
FILE "13 Replaceable.wav" WAVE
  TRACK 13 AUDIO
    TITLE "Replaceable"
    PERFORMER "Sevdaliza"
    REM COMPOSER ""
    ISRC NLE3U1700010
    INDEX 01 00:00:00
FILE "14 Grace.wav" WAVE
  TRACK 14 AUDIO
    TITLE "Grace"
    PERFORMER "Sevdaliza"
    REM COMPOSER ""
    ISRC NLE3U1700011
    INDEX 01 00:00:00
FILE "15 When I Reside.wav" WAVE
  TRACK 15 AUDIO
    TITLE "When I Reside"
    PERFORMER "Sevdaliza"
    REM COMPOSER ""
    ISRC NLE3U1700012
    INDEX 01 00:00:00
FILE "16 Angel (Bonus).wav" WAVE
  TRACK 16 AUDIO
    TITLE "Angel (Bonus)"
    PERFORMER "Sevdaliza"
    REM COMPOSER ""
    ISRC NLE3U1700013
    INDEX 01 00:00:00

Этот торрент недоступен для скачивания без регистрации, однако доступен по публичной magnet-ссылке (источники с публичных трекеров). Перед использованием ссылки прочтите, пожалуйста Пользовательское соглашение, а также как можно дольше оставайтесь на раздаче! Для того, чтобы скачать сам торрент-файл (который видит больше источников), а также для того, чтобы поблагодарить релизера, вам необходимо зарегистрироваться. Если регистрироваться лень - вы можете также попробовать скачать релиз по нашим партнерским ссылкам ниже. Кроме того, зарегистрированным пользователям не показывается всплывающая реклама при скачивании.

[underverse.me].t92801.torrent
Трекер: Зарегистрирован   [ 13.12.2017 01:15 ]  

Статус: проверено (by Darkferse at 13.12.2017 01:16)
Поблагодарили: пока никто не поблагодарил...
Тип торрента: публичный - доступные источники с открытых трекеров: 
Размер: 378 MB (занимает 0,08 DVDR, для записи нужно 1 болванка DVDR/RW)
 
 
Похожие темы
Форум Тема Автор Торрент Отв. Посл. сооб.
Зарубежная Pop Музыка (Trip Hop, Pop, Indie) Lunik - Encore (2CD) (2013) [MP3, 320 kbps] 90ytr90
0 | 0

0 | 708

2

02.12.2016 15:47

Trip Hop, Abstract Hip Hop (Trip Hop, Electronic) Kosheen - Independence (2012) [MP3, 320 kbps] ZondeR
22 | 3

0 | 2007

14

27.09.2012 06:45

Trip Hop, Abstract Hip Hop (Trip Hop, Downtempo, Chillout) The Atomica Project - The Non Affair (2010) [MP3, 320 kbps CBR] ost
0 | 0

0 | 1060

2

17.06.2014 17:28

Trip Hop, Abstract Hip Hop (Trip Hop, Indie Pop, Electronic) Jay-Jay Johanson - You'll Miss Me When I'm Gone [EP] (2017) [MP3, 320 kbps CBR] Darkferse
5 | 0

0 | 841

4

05.05.2017 07:56

Trip Hop, Abstract Hip Hop (Trip Hop, Downtempo, Lo-Fi) Malgrin – Calm Down (2015) [MP3, 320 kbps CBR] 8ad_R060d
1 | 0

0 | 1423

5

09.05.2015 17:35

Trip Hop, Abstract Hip Hop (Trip Hop, Electronic) Sevdaliza - Ison (2017) [MP3, 320 kbps CBR] Darkferse
17 | 8

0 | 1429

8

26.04.2017 11:46

Trip Hop, Abstract Hip Hop (Trip Hop, Female Vocal, Alternative) Elsiane - Death of the Artist (2017) [MP3, 320 kbps CBR] Darkferse
0 | 0

0 | 860

3

26.04.2017 11:53

Trip Hop, Abstract Hip Hop (Trip Hop, Glitch Hop, Neo-Soul) Boogrov - Define (2017) [MP3, 320 kbps CBR] Darkferse
2 | 0

0 | 923

2

27.04.2017 15:34

Trip Hop, Abstract Hip Hop (Trip Hop, Indie, Experimental) Son Lux - Collection (2008-2017) [MP3, 320 kbps CBR] Darkferse
11 | 6

0 | 1327

3

13.05.2017 18:50

Trip Hop, Abstract Hip Hop (Trip Hop, Electronic) UNKLE - The Road Part 1 (2017) [MP3, 320 kbps CBR] Darkferse
1 | 0

0 | 1133

2

24.06.2017 19:52


Яндекс.Метрика powered by Sphinx


В Н И М А Н И Е
Сайт не распространяет и не хранит электронные версии произведений, а лишь бесплатно и без коммерческой выгоды (не требуя взамен платы,
SMS и т.д.) предоставляет доступ к создаваемому пользователями каталогу ссылок на торрент-файлы, которые содержат только списки хеш-сумм.
Убедительная просьба с жалобами обращаться напрямую к пользователю, разместившему торрент файл.

Вверх