Loading...
Error

Оно / It (Андрес Мускетти) [2017 г., ужасы, драма, BD-Remux] Dub (iTunes) + MVO (Paradox&Omskbird) + AVO (Чадов) + Original + Sub

Статистика раздачи
Размер:  25,46 GB   |    Зарегистрирован:  7 месяцев   |    Скачан:  14 раз

Полного источника не было: 13 дней

Сидов:  0  |  0 KB/s  ]   Личеров:  0  |  0 KB/s  ]

* - сиды/пиры с внешних источников

   
 
Автор Сообщение

makkol Пол:Муж

19-Дек-2017 22:01

Оно / It
«А чего боишься ты?»


Год выпуска: 2017
Жанр: ужасы, драма
Производство: США [KatzSmith Productions, Lin Pictures, New Line Cinema, RatPac-Dune Entertainment, Vertigo Entertainment]
Режиссер: Андрес Мускетти
В ролях: Джейден Либерер, Джереми Рэй Тейлор, Софиа Лиллис, Финн Вулфард, Чоузен Джейкобс, Джек Грейзер, Уайатт Олефф, Билл Скарсгард, Николас Хэмилтон, Джейк Сим, Логан Томпсон, Оуэн Тиг, Джексон Роберт Скотт, Стивен Богерт, Стюарт Хьюз
Сюжет фильма:
Когда в городке Дерри, штат Мэн, начинают пропадать дети, несколько ребят сталкиваются со своими величайшими страхами и вынуждены помериться силами со злобным клоуном Пеннивайзом, чьи проявления жестокости и список жертв уходят в глубь веков...

Фильм основан на известном одноименном романе Стивена Кинга.

  • Мировая премьера: 29 августа 2017
  • Российская премьера: 7 сентября 2017


Качество видео: BD-Remux

Продолжительность: 02:14:42
Формат: MKV
Видео: MPEG-4 AVC, 1920x1080 (16:9), 23.976 fps, 23.8 Mbps
Аудио #1: русский, дублированный (iTunes), AC3 5.1, 384 kbps
Аудио #2: русский, любительский многоголосый закадровый (Paradox&Omskbird), AC3 5.1, 48 kHz, 448 kbps
Аудио #3: русский, авторский одноголосый закадровый (Михаил Чадов), AC3 2.0, 48 kHz, 192 kbps
Аудио #4: английский, оригинал, DTS-HD MA 5.1, 48 kHz, 2274 kbps
Субтитры: русские (forced, full), английские вшитые отключаемые

Код:

Format : Matroska
Format version : Version 4 / Version 2
File size : 25.5 GiB
Duration : 2 h 14 min
Overall bit rate mode : Variable
Overall bit rate : 27.1 Mb/s
Encoded date : UTC 2017-12-19 19:43:39
Writing application : mkvmerge v19.0.0 ('Brave Captain') 64-bit
Writing library : libebml v1.3.5 + libmatroska v1.4.8

Video
ID : 1
Format : AVC
Format/Info : Advanced Video Codec
Format profile : High@L4.1
Format settings : CABAC / 4 Ref Frames
Format settings, CABAC : Yes
Format settings, ReFrames : 4 frames
Codec ID : V_MPEG4/ISO/AVC
Duration : 2 h 14 min
Bit rate mode : Variable
Bit rate : 23.8 Mb/s
Maximum bit rate : 30.0 Mb/s
Width : 1 920 pixels
Height : 1 080 pixels
Display aspect ratio : 16:9
Frame rate mode : Constant
Frame rate : 23.976 (24000/1001) FPS
Color space : YUV
Chroma subsampling : 4:2:0
Bit depth : 8 bits
Scan type : Progressive
Bits/(Pixel*Frame) : 0.478
Stream size : 22.4 GiB (88%)
Language : English
Default : Yes
Forced : No

Audio #1
ID : 2
Format : AC-3
Format/Info : Audio Coding 3
Codec ID : A_AC3
Duration : 2 h 14 min
Bit rate mode : Constant
Bit rate : 384 kb/s
Channel(s) : 6 channels
Channel positions : Front: L C R, Side: L R, LFE
Sampling rate : 48.0 kHz
Frame rate : 31.250 FPS (1536 SPF)
Bit depth : 16 bits
Compression mode : Lossy
Stream size : 370 MiB (1%)
Title : iTunes
Language : Russian
Service kind : Complete Main
Default : No
Forced : No

Audio #2
ID : 3
Format : AC-3
Format/Info : Audio Coding 3
Codec ID : A_AC3
Duration : 2 h 14 min
Bit rate mode : Constant
Bit rate : 448 kb/s
Channel(s) : 6 channels
Channel positions : Front: L C R, Side: L R, LFE
Sampling rate : 48.0 kHz
Frame rate : 31.250 FPS (1536 SPF)
Bit depth : 16 bits
Compression mode : Lossy
Stream size : 432 MiB (2%)
Title : MVO [Paradox&Omskbird]
Language : Russian
Service kind : Complete Main
Default : No
Forced : No

Audio #3
ID : 4
Format : AC-3
Format/Info : Audio Coding 3
Codec ID : A_AC3
Duration : 2 h 12 min
Bit rate mode : Constant
Bit rate : 192 kb/s
Channel(s) : 2 channels
Channel positions : Front: L R
Sampling rate : 48.0 kHz
Frame rate : 31.250 FPS (1536 SPF)
Bit depth : 16 bits
Compression mode : Lossy
Stream size : 182 MiB (1%)
Title : AVO [Chadov]
Language : Russian
Service kind : Complete Main
Default : No
Forced : No

Audio #4
ID : 5
Format : DTS
Format/Info : Digital Theater Systems
Format profile : MA / Core
Codec ID : A_DTS
Duration : 2 h 14 min
Bit rate mode : Variable / Constant
Bit rate : 2 274 kb/s / 1 509 kb/s
Channel(s) : 6 channels
Channel positions : Front: L C R, Side: L R, LFE
Sampling rate : 48.0 kHz
Frame rate : 93.750 FPS (512 SPF)
Bit depth : 16 bits
Compression mode : Lossless / Lossy
Stream size : 2.14 GiB (8%)
Title : Original
Language : English
Default : No
Forced : No

Text #1
ID : 6
Format : UTF-8
Codec ID : S_TEXT/UTF8
Codec ID/Info : UTF-8 Plain Text
Duration : 2 h 8 min
Bit rate : 2 b/s
Count of elements : 48
Stream size : 2.16 KiB (0%)
Title : Forced
Language : Russian
Default : Yes
Forced : No

Text #2
ID : 7
Format : UTF-8
Codec ID : S_TEXT/UTF8
Codec ID/Info : UTF-8 Plain Text
Duration : 2 h 8 min
Bit rate : 64 b/s
Count of elements : 1209
Stream size : 60.7 KiB (0%)
Title : Full
Language : Russian
Default : No
Forced : No

Text #3
ID : 8
Format : UTF-8
Codec ID : S_TEXT/UTF8
Codec ID/Info : UTF-8 Plain Text
Duration : 2 h 13 min
Bit rate : 38 b/s
Count of elements : 1383
Stream size : 37.4 KiB (0%)
Title : Full
Language : English
Default : No
Forced : No

Text #4
ID : 9
Format : UTF-8
Codec ID : S_TEXT/UTF8
Codec ID/Info : UTF-8 Plain Text
Duration : 2 h 14 min
Bit rate : 50 b/s
Count of elements : 1838
Stream size : 49.6 KiB (0%)
Title : SDH
Language : English
Default : No
Forced : No

Menu
00:00:00.000 : en:Chapter 1
00:09:23.646 : en:Chapter 2
00:18:31.860 : en:Chapter 3
00:28:26.162 : en:Chapter 4
00:38:36.981 : en:Chapter 5
00:48:19.438 : en:Chapter 6
00:59:30.775 : en:Chapter 7
01:08:52.795 : en:Chapter 8
01:16:58.822 : en:Chapter 9
01:26:52.957 : en:Chapter 10
01:38:15.306 : en:Chapter 11
01:48:40.972 : en:Chapter 12
02:04:07.898 : en:Chapter 13
02:09:05.654 : en:Chapter 14
Релиз:

picpicpicpicpic
Для увеличения картинки щелкните мышкой по превью

Этот торрент недоступен для скачивания без регистрации, однако доступен по публичной magnet-ссылке (источники с публичных трекеров). Перед использованием ссылки прочтите, пожалуйста Пользовательское соглашение, а также как можно дольше оставайтесь на раздаче! Для того, чтобы скачать сам торрент-файл (который видит больше источников), а также для того, чтобы поблагодарить релизера, вам необходимо зарегистрироваться. Если регистрироваться лень - вы можете также попробовать скачать релиз по нашим партнерским ссылкам ниже. Кроме того, зарегистрированным пользователям не показывается всплывающая реклама при скачивании.

[underverse.me].t93302.torrent
Трекер: Зарегистрирован   [ 19.12.2017 22:01 ]  

Статус: T временная (by makkol at 19.12.2017 22:01)
Поблагодарили: 1 человек
Тип торрента: публичный - доступные источники с открытых трекеров: 
Размер: 25,46 GB (занимает 5,82 DVDR, для записи нужно 6 болванок DVDR/RW)
 
 
Похожие темы
Форум Тема Автор Торрент Отв. Посл. сооб.
T Зарубежное кино [DVDRip, Low-Res HDRip, и т.д.] Оно / It (Андрес Мускетти) [2017 г., ужасы, драма, WEBRip] MVO (@MUZOBOZ@) makkol
9 | 0

0 | 1000

26

06.10.2017 20:21

T Зарубежное кино [DVDRip, Low-Res HDRip, и т.д.] Оно / It (Андрес Мускетти) [2017 г., ужасы, драма, WEBRip] Dub (Line) makkol
10 | 0

0 | 875

17

19.10.2017 21:18

T Зарубежное кино [DVDRip, Low-Res HDRip, и т.д.] Оно / It (Андрес Мускетти) [2017 г., ужасы, драма, HDTVRip] Dub (Line) makkol
18 | 0

0 | 1616

35

28.10.2017 21:27

T Зарубежное кино [DVDRip, Low-Res HDRip, и т.д.] Оно / It (Андрес Мускетти) [2017 г., ужасы, драма, WEB-DLRip] Dub (Line) makkol
7 | 0

0 | 551

16

08.12.2017 21:06

Зарубежное кино [DVDRip, Low-Res HDRip, и т.д.] Оно / It (Андрес Мускетти) [2017 г., ужасы, драма, HDRip] AVO (Чадов) makkol
10 | 3

0 | 347

4

18.12.2017 21:44

T Зарубежное кино [DVDRip, Low-Res HDRip, и т.д.] Оно / It (Андрес Мускетти) [2017 г., ужасы, драма, BDRip] Dub (iTunes) makkol
15 | 3

0 | 1125

31

19.12.2017 21:19

T Зарубежное кино [DVDRip, Low-Res HDRip, и т.д.] Оно / It (Андрес Мускетти) [2017 г., ужасы, драма, BDRip] Dub (iTunes) makkol
6 | 3

0 | 516

16

19.12.2017 21:30

Зарубежное кино [DVDRip, Low-Res HDRip, и т.д.] Оно / It (Андрес Мускетти / Andy Muschietti) [2017 г., ужасы, драма, BDRip] Dub + Sub (Rus) 90ytr90
964 | 12

0 | 1115

11

25.02.2018 08:07

Зарубежное кино [DVDRip, Low-Res HDRip, и т.д.] Оно / It (Андрес Мускетти / Andy Muschietti) [2017 г., ужасы, драма, BDRip] Dub + Sub (Rus) 90ytr90
17 | 3

0 | 286

2

25.02.2018 08:08

Зарубежное кино [DVDRip, Low-Res HDRip, и т.д.] Оно / It (Андрес Мускетти / Andy Muschietti) [2017 г., ужасы, драма, BDRip] Dub 90ytr90
46 | 3

0 | 233

3

25.02.2018 08:11


Яндекс.Метрика powered by Sphinx


В Н И М А Н И Е
Сайт не распространяет и не хранит электронные версии произведений, а лишь бесплатно и без коммерческой выгоды (не требуя взамен платы,
SMS и т.д.) предоставляет доступ к создаваемому пользователями каталогу ссылок на торрент-файлы, которые содержат только списки хеш-сумм.
Убедительная просьба с жалобами обращаться напрямую к пользователю, разместившему торрент файл.

Вверх