Loading...
Error

(Hip-Hop, IDM) Аигел - 1190 (2017) [FLAC (Tracks+.CUE), lossless]

Статистика раздачи
Размер:  291 MB   |    Зарегистрирован:  1 год   |    Скачан:  2 раза

Полного источника не было: 10 дней

Сидов:  0  |  0 KB/s  ]   Личеров:  0  |  0 KB/s  ]

* - сиды/пиры с внешних источников

   
 
Автор Сообщение

Darkferse Пол:Жен

01-Янв-2018 14:06

Аигел - 1190

Жанр: Hip-Hop, IDM
Год выпуска: 2017
Источник: CD
Производитель: Заплатка - ЗПТ001
Аудиокодек: FLAC
Тип рипа: Tracks+.CUE
Битрейт: lossless
Продолжительность: 00:43:57

Треклист:

01. Царапки (5:36)
02. Ария судьи (4:35)
03. Тело (3:16)
04. 1190 (5:12)
05. Невеста (4:41)
06. Духи огня (5:15)
07. Переписка (4:47)
08. Татарин (3:14)
09. Яд (3:52)
10. Кетам (3:28)

Код:

Exact Audio Copy V1.3 from 2. September 2016

Отчёт EAC об извлечении, выполненном 6. декабря 2017, 3:51

Аигел / 1190

Дисковод: HL-DT-STDVDRAM GU61N   Adapter: 1  ID: 0

Режим чтения                 : Достоверность
Использование точного потока : Да
Отключение кэша аудио        : Да
Использование указателей C2  : Нет

Коррекция смещения при чтении                     : 6
Способность читать области Lead-in и Lead-out     : Нет
Заполнение пропущенных сэмплов тишиной            : Да
Удаление блоков с тишиной в начале и конце        : Нет
При вычислениях CRC использовались нулевые сэмплы : Да
Интерфейс                                         : Встроенный Win32-интерфейс для Win NT/2000
Обработка зазоров                                 : Добавлено к предыдущему треку

Выходной формат          : Пользовательский кодировщик
Выбранный битрейт        : 128 kBit/s
Качество                 : Высокий
Добавление ID3-тега      : Нет
Утилита сжатия           : C:\Program Files\Exact Audio Copy\Flac\flac.exe
Дополнительные параметры : -V -8 -T "comment=ripped by You-Rock Man" -T "TrackNumber=%tracknr2%" -T "TrackTotal=%numtracks%" -T "Artist=%artist%" -T "Title=%title%" -T "Album=%albumtitle%" -T "AlbumArtist=%albumartist%" -T "Date=%year%" -T "Genre=%genre%" -T "DiscID=%cddbid%" %source%

TOC извлечённого CD

     Трек |   Старт  | Длительность | Начальный сектор | Конечный сектор
    ---------------------------------------------------------------------
       1  |  0:00.00 |    5:36.34   |           0      |      25233
       2  |  5:36.34 |    4:35.15   |       25234      |      45873
       3  | 10:11.49 |    3:16.28   |       45874      |      60601
       4  | 13:28.02 |    5:12.00   |       60602      |      84001
       5  | 18:40.02 |    4:41.19   |       84002      |     105095
       6  | 23:21.21 |    5:14.62   |      105096      |     128707
       7  | 28:36.08 |    4:47.14   |      128708      |     150246
       8  | 33:23.22 |    3:14.01   |      150247      |     164797
       9  | 36:37.23 |    3:51.46   |      164798      |     182168
      10  | 40:28.69 |    3:27.52   |      182169      |     197745

Трек  1

     Имя файла C:\Users\Юрий\Desktop\Аигел - 1190 (2017, Заплатка, ЗПТ001)\01 Царапки.wav

     Длина предзазора  0:00:02.00

     Пиковый уровень 94.4 %
     Скорость извлечения 1.4 X
     Качество трека 100.0 %
     CRC теста 3F2830A9
     CRC копии 3F2830A9
     Трек не обнаружен в базе AccurateRip
     Копирование... OK

Трек  2

     Имя файла C:\Users\Юрий\Desktop\Аигел - 1190 (2017, Заплатка, ЗПТ001)\02 Ария судьи.wav

     Пиковый уровень 94.4 %
     Скорость извлечения 1.3 X
     Качество трека 99.9 %
     CRC теста 3D51BDD6
     CRC копии 3D51BDD6
     Трек не обнаружен в базе AccurateRip
     Копирование... OK

Трек  3

     Имя файла C:\Users\Юрий\Desktop\Аигел - 1190 (2017, Заплатка, ЗПТ001)\03 Тело.wav

     Пиковый уровень 94.4 %
     Скорость извлечения 1.5 X
     Качество трека 100.0 %
     CRC теста B3ECF503
     CRC копии B3ECF503
     Трек не обнаружен в базе AccurateRip
     Копирование... OK

Трек  4

     Имя файла C:\Users\Юрий\Desktop\Аигел - 1190 (2017, Заплатка, ЗПТ001)\04 1190.wav

     Пиковый уровень 94.4 %
     Скорость извлечения 1.7 X
     Качество трека 100.0 %
     CRC теста E4CA5D58
     CRC копии E4CA5D58
     Трек не обнаружен в базе AccurateRip
     Копирование... OK

Трек  5

     Имя файла C:\Users\Юрий\Desktop\Аигел - 1190 (2017, Заплатка, ЗПТ001)\05 Невеста.wav

     Пиковый уровень 94.4 %
     Скорость извлечения 1.8 X
     Качество трека 100.0 %
     CRC теста 30FD6C80
     CRC копии 30FD6C80
     Трек не обнаружен в базе AccurateRip
     Копирование... OK

Трек  6

     Имя файла C:\Users\Юрий\Desktop\Аигел - 1190 (2017, Заплатка, ЗПТ001)\06 Духи огня.wav

     Пиковый уровень 94.4 %
     Скорость извлечения 1.9 X
     Качество трека 100.0 %
     CRC теста E89A5976
     CRC копии E89A5976
     Трек не обнаружен в базе AccurateRip
     Копирование... OK

Трек  7

     Имя файла C:\Users\Юрий\Desktop\Аигел - 1190 (2017, Заплатка, ЗПТ001)\07 Переписка.wav

     Пиковый уровень 94.4 %
     Скорость извлечения 1.8 X
     Качество трека 99.9 %
     CRC теста B9B33BB7
     CRC копии B9B33BB7
     Трек не обнаружен в базе AccurateRip
     Копирование... OK

Трек  8

     Имя файла C:\Users\Юрий\Desktop\Аигел - 1190 (2017, Заплатка, ЗПТ001)\08 Татарин.wav

     Пиковый уровень 94.4 %
     Скорость извлечения 2.0 X
     Качество трека 100.0 %
     CRC теста BDCBFEE3
     CRC копии BDCBFEE3
     Трек не обнаружен в базе AccurateRip
     Копирование... OK

Трек  9

     Имя файла C:\Users\Юрий\Desktop\Аигел - 1190 (2017, Заплатка, ЗПТ001)\09 Яд.wav

     Пиковый уровень 94.4 %
     Скорость извлечения 2.1 X
     Качество трека 100.0 %
     CRC теста B8873C16
     CRC копии B8873C16
     Трек не обнаружен в базе AccurateRip
     Копирование... OK

Трек 10

     Имя файла C:\Users\Юрий\Desktop\Аигел - 1190 (2017, Заплатка, ЗПТ001)\10 Кетам.wav

     Пиковый уровень 94.4 %
     Скорость извлечения 2.1 X
     Качество трека 100.0 %
     CRC теста 5BE8EFFF
     CRC копии 5BE8EFFF
     Трек не обнаружен в базе AccurateRip
     Копирование... OK

Ни одного трека нет в базе AccurateRip

Ошибок не произошло

Конец отчёта

---- CUETools DB Plugin V2.1.6

[CTDB TOCID: 7sKdYSUXuMpPj7t8sOpbU6wJxX8-] disk not present in database
Submit result: 7sKdYSUXuMpPj7t8sOpbU6wJxX8- has been uploaded

==== Контрольная сумма отчёта BBA32AE65241639EC3D2D7497E09283F8343B0E1A137AEDA39674D4642FEFF73 ====

Код:

REM GENRE "IDM / Hip-Hop"
REM DATE 2017
REM DISCID 670A4C0A
REM COMMENT "ExactAudioCopy v1.3"
PERFORMER "Аигел"
TITLE "1190"
REM COMPOSER ""
FILE "01 Царапки.flac" WAVE
  TRACK 01 AUDIO
    TITLE "Царапки"
    PERFORMER "Аигел"
    REM COMPOSER ""
    INDEX 01 00:00:00
FILE "02 Ария судьи.flac" WAVE
  TRACK 02 AUDIO
    TITLE "Ария судьи"
    PERFORMER "Аигел"
    REM COMPOSER ""
    INDEX 01 00:00:00
FILE "03 Тело.flac" WAVE
  TRACK 03 AUDIO
    TITLE "Тело"
    PERFORMER "Аигел"
    REM COMPOSER ""
    INDEX 01 00:00:00
FILE "04 1190.flac" WAVE
  TRACK 04 AUDIO
    TITLE "1190"
    PERFORMER "Аигел"
    REM COMPOSER ""
    INDEX 01 00:00:00
FILE "05 Невеста.flac" WAVE
  TRACK 05 AUDIO
    TITLE "Невеста"
    PERFORMER "Аигел"
    REM COMPOSER ""
    INDEX 01 00:00:00
FILE "06 Духи огня.flac" WAVE
  TRACK 06 AUDIO
    TITLE "Духи огня"
    PERFORMER "Аигел"
    REM COMPOSER ""
    INDEX 01 00:00:00
FILE "07 Переписка.flac" WAVE
  TRACK 07 AUDIO
    TITLE "Переписка"
    PERFORMER "Аигел"
    REM COMPOSER ""
    INDEX 01 00:00:00
FILE "08 Татарин.flac" WAVE
  TRACK 08 AUDIO
    TITLE "Татарин"
    PERFORMER "Аигел"
    REM COMPOSER ""
    INDEX 01 00:00:00
FILE "09 Яд.flac" WAVE
  TRACK 09 AUDIO
    TITLE "Яд"
    PERFORMER "Аигел"
    REM COMPOSER ""
    INDEX 01 00:00:00
FILE "10 Кетам.flac" WAVE
  TRACK 10 AUDIO
    TITLE "Кетам"
    PERFORMER "Аигел"
    REM COMPOSER ""
    INDEX 01 00:00:00

Этот торрент недоступен для скачивания без регистрации, однако доступен по публичной magnet-ссылке (источники с публичных трекеров). Перед использованием ссылки прочтите, пожалуйста Пользовательское соглашение, а также как можно дольше оставайтесь на раздаче! Для того, чтобы скачать сам торрент-файл (который видит больше источников), а также для того, чтобы поблагодарить релизера, вам необходимо зарегистрироваться. Если регистрироваться лень - вы можете также попробовать скачать релиз по нашим партнерским ссылкам ниже. Кроме того, зарегистрированным пользователям не показывается всплывающая реклама при скачивании.

[underverse.me].t94080.torrent
Трекер: Зарегистрирован   [ 01.01.2018 14:06 ]  

Статус: проверено (by Darkferse at 01.01.2018 14:06)
Поблагодарили: пока никто не поблагодарил...
Тип торрента: публичный - доступные источники с открытых трекеров: 
Размер: 291 MB (занимает 0,06 DVDR, для записи нужно 1 болванка DVDR/RW)
 
 
Похожие темы
Форум Тема Автор Торрент Отв. Посл. сооб.
Electro, Breakbeat, Dubstep (Hip-Hop, Electronic) Lindemann feat. Haftbefehl - Mathematik [EP] (2018) [MP3, 320 kbps CBR] 90ytr90
3 | 3

0 | 304

3

19.12.2018 16:53

Chillout, Lounge, Downtempo (Hip-Hop, Jazz, Chillout) Blazo - Discography (3 Albums, 1 Mixtape 2009-2012) [MP3, 320 kbps] WEB 8ad_R060d
2 | 0

1 | 1820

2

18.01.2014 06:56

Зарубежный Rap, Hip-Hop (Hip-Hop, Jazz, Dub) Stand High Patrol - The Shift (2017) [MP3, 320 kbps CBR] Darkferse
5 | 0

0 | 623

1

10.07.2017 17:34

Зарубежный Rap, Hip-Hop (Hip-Hop, Bay Area Rap) AG Cubano - Cash & Carry (2016) [MP3, 320 kbps] ANDRAKO
1 | 0

0 | 704

1

16.11.2016 07:53

Зарубежный Rap, Hip-Hop (Hip-Hop, Bay Area Rap) K-Loc - Moe Crime (2016) [MP3, 320 kbps] ANDRAKO
1 | 0

0 | 667

1

11.11.2016 15:06

Зарубежный Rap, Hip-Hop (Hip-Hop, Old School, Rap) Kris Kross - Gonna Make U Jump (Greatest Hits) (1998) [MP3, 320 kbps] uzi2009
5 | 0

0 | 2441

5

17.01.2014 21:56

Зарубежный Rap, Hip-Hop (Hip-Hop, Grime) Dizzee Rascal - The Fifth (2013) [MP3, 320 kbps] uzi2009
1 | 0

0 | 1338

6

17.01.2014 22:16

Зарубежный Rap, Hip-Hop (Hip-hop, Jazz Hop) Kero One - Discography (7CD 2006-2012) [MP3, 320 kbps, V2] 8ad_R060d
1 | 1

0 | 1547

2

25.03.2014 07:50

Зарубежный Rap, Hip-Hop (Hip-Hop, West Coast Rap) Quiz - Air Max 90's (2015) [MP3, 320 kbps] ANDRAKO
1 | 0

0 | 771

1

14.11.2016 09:33

Зарубежный Rap, Hip-Hop (Hip-Hop, Rap) Rick Ross - Rather You Than Me (2017) [AAC, 256 kbps VBR] Darkferse
1 | 0

0 | 665

3

05.04.2017 04:44


Яндекс.Метрика powered by Sphinx


В Н И М А Н И Е
Сайт не распространяет и не хранит электронные версии произведений, а лишь бесплатно и без коммерческой выгоды (не требуя взамен платы,
SMS и т.д.) предоставляет доступ к создаваемому пользователями каталогу ссылок на торрент-файлы, которые содержат только списки хеш-сумм.
Убедительная просьба с жалобами обращаться напрямую к пользователю, разместившему торрент файл.

Вверх