Loading...
Error

(Jazz, Modern, Ethnic) Arnaud Dolmen Quartet - Tonbe Leve (2017) [FLAC (Tracks+.CUE), lossless]

Статистика раздачи
Размер:  390 MB   |    Зарегистрирован:  7 месяцев   |    Скачан:  4 раза

Полного источника не было: 1 месяц 8 дней

Сидов:  0  |  0 KB/s  ]   Личеров:  0  |  0 KB/s  ]

* - сиды/пиры с внешних источников

   
 
Автор Сообщение

Darkferse Пол:Жен

01-Янв-2018 16:21

Arnaud Dolmen Quartet - Tonbe Leve

Жанр: Jazz, Modern, Ethnic
Год выпуска: 2017
Источник: CD
Производитель: Unisson Production
Аудиокодек: FLAC
Тип рипа: Tracks+.CUE
Битрейт: lossless
Продолжительность: 01:02:54

Треклист:

1. Experience One
2. Tet Kole
3. Tonbe Leve
4. Tou Sel Me…
5. Intro Sonje Joj
6. Sonje Joj
7. S'en Souvenir Pour Devenir
8. Karube
9. Zetliyo
10. Mesi La Fanmi Part 1
11. Mesi La Fanmi Part 2
12. Mesi La Fanmi Part 3
13. La Habana Kreyol

Состав
Arnaud Dolmen (perc, voc)
Adrien Sanchèz (saxophone)
Léonardo Montana (piano)
Joachim Govin (double bass)

Код:

Exact Audio Copy V1.3 from 2. September 2016

EAC extraction logfile from 1. January 2018, 8:51

Arnaud Dolmen Quartet / Tonbe Leve

Used drive  : ATAPI   iHBS112   2   Adapter: 1  ID: 1

Read mode               : Secure
Utilize accurate stream : Yes
Defeat audio cache      : Yes
Make use of C2 pointers : No

Read offset correction                      : 6
Overread into Lead-In and Lead-Out          : No
Fill up missing offset samples with silence : Yes
Delete leading and trailing silent blocks   : No
Null samples used in CRC calculations       : Yes
Used interface                              : Native Win32 interface for Win NT & 2000
Gap handling                                : Appended to previous track

Used output format              : User Defined Encoder
Selected bitrate                : 128 kBit/s
Quality                         : High
Add ID3 tag                     : No
Command line compressor         : C:\Program Files (x86)\Exact Audio Copy\Flac\flac.exe
Additional command line options : -8 -V -T "ARTIST=%artist%" -T "TITLE=%title%" -T "ALBUM=%albumtitle%" -T "DATE=%year%" -T "TRACKNUMBER=%tracknr%" -T "GENRE=%genre%" -T "PERFORMER=%albuminterpret%" -T "COMPOSER=%composer%" -T "ALBUMARTIST=%albumartist%" -T "DISCNUMBER=%cdnumber%" -T "TOTALDISCS=%totalcds%" -T "TOTALTRACKS=%numtracks%" -T "COMMENT=EAC Secure Mode, Test & Copy, AccurateRip, FLAC -8" %source% -o %dest%

TOC of the extracted CD

     Track |   Start  |  Length  | Start sector | End sector
    ---------------------------------------------------------
        1  |  0:00.00 |  5:19.29 |         0    |    23953
        2  |  5:19.29 |  6:01.58 |     23954    |    51086
        3  | 11:21.12 |  4:53.32 |     51087    |    73093
        4  | 16:14.44 |  7:06.36 |     73094    |   105079
        5  | 23:21.05 |  1:51.35 |    105080    |   113439
        6  | 25:12.40 |  6:51.71 |    113440    |   144335
        7  | 32:04.36 |  0:32.40 |    144336    |   146775
        8  | 32:37.01 |  6:33.41 |    146776    |   176291
        9  | 39:10.42 |  5:43.13 |    176292    |   202029
       10  | 44:53.55 |  4:20.21 |    202030    |   221550
       11  | 49:14.01 |  5:15.47 |    221551    |   245222
       12  | 54:29.48 |  2:43.02 |    245223    |   257449
       13  | 57:12.50 |  5:47.48 |    257450    |   283522

Track  1

     Filename H:\DL\Arnaud Dolmen Quartet - Tonbe Leve (2017) [FLAC]\01 - Experience One.wav

     Pre-gap length  0:00:02.00

     Peak level 98.7 %
     Extraction speed 3.1 X
     Track quality 99.9 %
     Test CRC 4B5A252F
     Copy CRC 4B5A252F
     Track not present in AccurateRip database
     Copy OK

Track  2

     Filename H:\DL\Arnaud Dolmen Quartet - Tonbe Leve (2017) [FLAC]\02 - Tet Kole.wav

     Peak level 96.7 %
     Extraction speed 6.5 X
     Track quality 100.0 %
     Test CRC 932FC6A0
     Copy CRC 932FC6A0
     Track not present in AccurateRip database
     Copy OK

Track  3

     Filename H:\DL\Arnaud Dolmen Quartet - Tonbe Leve (2017) [FLAC]\03 - Tonbe Leve.wav

     Peak level 98.7 %
     Extraction speed 7.0 X
     Track quality 100.0 %
     Test CRC C4E12DA2
     Copy CRC C4E12DA2
     Track not present in AccurateRip database
     Copy OK

Track  4

     Filename H:\DL\Arnaud Dolmen Quartet - Tonbe Leve (2017) [FLAC]\04 - Tou Sel Me.wav

     Peak level 96.3 %
     Extraction speed 7.8 X
     Track quality 100.0 %
     Test CRC 563C4A17
     Copy CRC 563C4A17
     Track not present in AccurateRip database
     Copy OK

Track  5

     Filename H:\DL\Arnaud Dolmen Quartet - Tonbe Leve (2017) [FLAC]\05 - Intro Sonje Joj.wav

     Peak level 46.0 %
     Extraction speed 6.8 X
     Track quality 100.0 %
     Test CRC 95CD2DE4
     Copy CRC 95CD2DE4
     Track not present in AccurateRip database
     Copy OK

Track  6

     Filename H:\DL\Arnaud Dolmen Quartet - Tonbe Leve (2017) [FLAC]\06 - Sonje Joj.wav

     Peak level 98.2 %
     Extraction speed 8.7 X
     Track quality 100.0 %
     Test CRC 4C7E02EC
     Copy CRC 4C7E02EC
     Track not present in AccurateRip database
     Copy OK

Track  7

     Filename H:\DL\Arnaud Dolmen Quartet - Tonbe Leve (2017) [FLAC]\07 - S'en Souvenir Pour Devenir.wav

     Peak level 55.2 %
     Extraction speed 2.5 X
     Track quality 99.6 %
     Test CRC E1E47612
     Copy CRC E1E47612
     Track not present in AccurateRip database
     Copy OK

Track  8

     Filename H:\DL\Arnaud Dolmen Quartet - Tonbe Leve (2017) [FLAC]\08 - Karube.wav

     Peak level 97.9 %
     Extraction speed 9.2 X
     Track quality 100.0 %
     Test CRC 1AA70531
     Copy CRC 1AA70531
     Track not present in AccurateRip database
     Copy OK

Track  9

     Filename H:\DL\Arnaud Dolmen Quartet - Tonbe Leve (2017) [FLAC]\09 - Zetliyo.wav

     Peak level 98.7 %
     Extraction speed 9.6 X
     Track quality 100.0 %
     Test CRC B6EE45EF
     Copy CRC B6EE45EF
     Track not present in AccurateRip database
     Copy OK

Track 10

     Filename H:\DL\Arnaud Dolmen Quartet - Tonbe Leve (2017) [FLAC]\10 - Mesi La Fanmi Part 1.wav

     Peak level 95.5 %
     Extraction speed 8.0 X
     Track quality 99.9 %
     Test CRC E1850D69
     Copy CRC E1850D69
     Track not present in AccurateRip database
     Copy OK

Track 11

     Filename H:\DL\Arnaud Dolmen Quartet - Tonbe Leve (2017) [FLAC]\11 - Mesi La Fanmi Part 2.wav

     Peak level 97.7 %
     Extraction speed 10.1 X
     Track quality 100.0 %
     Test CRC 7635CD8D
     Copy CRC 7635CD8D
     Track not present in AccurateRip database
     Copy OK

Track 12

     Filename H:\DL\Arnaud Dolmen Quartet - Tonbe Leve (2017) [FLAC]\12 - Mesi La Fanmi Part 3.wav

     Peak level 95.3 %
     Extraction speed 7.4 X
     Track quality 99.9 %
     Test CRC 905AFF21
     Copy CRC 905AFF21
     Track not present in AccurateRip database
     Copy OK

Track 13

     Filename H:\DL\Arnaud Dolmen Quartet - Tonbe Leve (2017) [FLAC]\13 - La Habana Kreyol.wav

     Peak level 97.4 %
     Extraction speed 10.7 X
     Track quality 100.0 %
     Test CRC B90F7C9E
     Copy CRC B90F7C9E
     Track not present in AccurateRip database
     Copy OK

None of the tracks are present in the AccurateRip database

No errors occurred

End of status report

---- CUETools DB Plugin V2.1.6

[CTDB TOCID: IOMBRj0_cl1JEBXefN.Rcr0bXyo-] disk not present in database
Submit result: IOMBRj0_cl1JEBXefN.Rcr0bXyo- has been uploaded

==== Log checksum 7D89032C74363BEC3872B553D62F54E2BD8FE5D55779BD0C1799200295E73F98 ====

Код:

REM GENRE Jazz
REM DATE 2017
REM DISCID BF0EC40D
REM COMMENT "ExactAudioCopy v1.3"
PERFORMER "Arnaud Dolmen Quartet"
TITLE "Tonbe Leve"
REM COMPOSER ""
FILE "01 - Experience One.wav" WAVE
  TRACK 01 AUDIO
    TITLE "Experience One"
    PERFORMER "Arnaud Dolmen Quartet"
    REM COMPOSER ""
    INDEX 01 00:00:00
FILE "02 - Tet Kole.wav" WAVE
  TRACK 02 AUDIO
    TITLE "Tet Kole"
    PERFORMER "Arnaud Dolmen Quartet"
    REM COMPOSER ""
    INDEX 01 00:00:00
FILE "03 - Tonbe Leve.wav" WAVE
  TRACK 03 AUDIO
    TITLE "Tonbe Leve"
    PERFORMER "Arnaud Dolmen Quartet"
    REM COMPOSER ""
    INDEX 01 00:00:00
FILE "04 - Tou Sel Me.wav" WAVE
  TRACK 04 AUDIO
    TITLE "Tou Sel Me"
    PERFORMER "Arnaud Dolmen Quartet"
    REM COMPOSER ""
    INDEX 01 00:00:00
FILE "05 - Intro Sonje Joj.wav" WAVE
  TRACK 05 AUDIO
    TITLE "Intro Sonje Joj"
    PERFORMER "Arnaud Dolmen Quartet"
    REM COMPOSER ""
    INDEX 01 00:00:00
FILE "06 - Sonje Joj.wav" WAVE
  TRACK 06 AUDIO
    TITLE "Sonje Joj"
    PERFORMER "Arnaud Dolmen Quartet"
    REM COMPOSER ""
    INDEX 01 00:00:00
FILE "07 - S'en Souvenir Pour Devenir.wav" WAVE
  TRACK 07 AUDIO
    TITLE "S'en Souvenir Pour Devenir"
    PERFORMER "Arnaud Dolmen Quartet"
    REM COMPOSER ""
    INDEX 01 00:00:00
FILE "08 - Karube.wav" WAVE
  TRACK 08 AUDIO
    TITLE "Karube"
    PERFORMER "Arnaud Dolmen Quartet"
    REM COMPOSER ""
    INDEX 01 00:00:00
FILE "09 - Zetliyo.wav" WAVE
  TRACK 09 AUDIO
    TITLE "Zetliyo"
    PERFORMER "Arnaud Dolmen Quartet"
    REM COMPOSER ""
    INDEX 01 00:00:00
FILE "10 - Mesi La Fanmi Part 1.wav" WAVE
  TRACK 10 AUDIO
    TITLE "Mesi La Fanmi Part 1"
    PERFORMER "Arnaud Dolmen Quartet"
    REM COMPOSER ""
    INDEX 01 00:00:00
FILE "11 - Mesi La Fanmi Part 2.wav" WAVE
  TRACK 11 AUDIO
    TITLE "Mesi La Fanmi Part 2"
    PERFORMER "Arnaud Dolmen Quartet"
    REM COMPOSER ""
    INDEX 01 00:00:00
FILE "12 - Mesi La Fanmi Part 3.wav" WAVE
  TRACK 12 AUDIO
    TITLE "Mesi La Fanmi Part 3"
    PERFORMER "Arnaud Dolmen Quartet"
    REM COMPOSER ""
    INDEX 01 00:00:00
FILE "13 - La Habana Kreyol.wav" WAVE
  TRACK 13 AUDIO
    TITLE "La Habana Kreyol"
    PERFORMER "Arnaud Dolmen Quartet"
    REM COMPOSER ""
    INDEX 01 00:00:00

Этот торрент недоступен для скачивания без регистрации, однако доступен по публичной magnet-ссылке (источники с публичных трекеров). Перед использованием ссылки прочтите, пожалуйста Пользовательское соглашение, а также как можно дольше оставайтесь на раздаче! Для того, чтобы скачать сам торрент-файл (который видит больше источников), а также для того, чтобы поблагодарить релизера, вам необходимо зарегистрироваться. Если регистрироваться лень - вы можете также попробовать скачать релиз по нашим партнерским ссылкам ниже. Кроме того, зарегистрированным пользователям не показывается всплывающая реклама при скачивании.

[underverse.me].t94097.torrent
Трекер: Зарегистрирован   [ 01.01.2018 16:21 ]  

Статус: проверено (by Darkferse at 01.01.2018 16:22)
Поблагодарили: пока никто не поблагодарил...
Тип торрента: публичный - доступные источники с открытых трекеров: 
Размер: 390 MB (занимает 0,09 DVDR, для записи нужно 1 болванка DVDR/RW)
 
 
Похожие темы
Форум Тема Автор Торрент Отв. Посл. сооб.
Неофициальные и внежанровые сборники (Jazz, Modern Jazz, Blues) VA - Jazz Juice: Vocal Compilation (2016) [MP3, 320 kbps CBR] Evgenii82
1 | 0

0 | 821

6

14.03.2016 21:18


Яндекс.Метрика powered by Sphinx


В Н И М А Н И Е
Сайт не распространяет и не хранит электронные версии произведений, а лишь бесплатно и без коммерческой выгоды (не требуя взамен платы,
SMS и т.д.) предоставляет доступ к создаваемому пользователями каталогу ссылок на торрент-файлы, которые содержат только списки хеш-сумм.
Убедительная просьба с жалобами обращаться напрямую к пользователю, разместившему торрент файл.

Вверх