Loading...
Error

(Rock, Alternative Rock) ЗОО-Парк - реМАЙК (2000) [FLAC (Image+.Cue), Lossless]

Статистика раздачи
Размер:  336 MB   |    Зарегистрирован:  10 месяцев   |    Скачан:  2 раза

Полного источника не было: 8 месяцев

Сидов:  0  |  0 KB/s  ]   Личеров:  0  |  0 KB/s  ]

* - сиды/пиры с внешних источников

   
 
Автор Сообщение

Бишеп Пол:Муж

12-Фев-2018 06:26

ЗОО-Парк - реМАЙК

Жанр: Rock, Alternative Rock
Год выпуска:
Источник: CD
Производитель диска: Manchester Files - CDMAN 054-00
Аудиокодек: FLAC
Тип рипа: Image+.CUE
Битрейт аудио: lossless
Продолжительность: 00:53:55


Треклист:
01. Я Забываю (3:42)
02. Лунная Серенада (2:49)
03. Ты, Я и Домбай (2:52)
04. Мария (3:50)
05. Горький Ангел (4:19)
06. Хождения (2:34)
07. Салоны (4:42)
08. Эй, Моряк! (3:22)
09. Ах, Любовь! (3:28)
10. Гопники (4:25)
11. Блюз Субботнего Вечера (5:52)
12. Жизнь в Зоопарке (2:55)
13. Казачья Колыбельная (4:03)
14. Твой Новый Пудель (2:30)
15. 20 Лет Назад (2:32)

Код:

Exact Audio Copy V1.1 from 23. June 2015

EAC extraction logfile from 10. July 2016, 2:16

ЗОО-парк / реМАЙК

Used drive  : SlimtypeDVD A  DS8A8SH   Adapter: 1  ID: 0

Read mode               : Secure
Utilize accurate stream : Yes
Defeat audio cache      : Yes
Make use of C2 pointers : No

Read offset correction                      : 6
Overread into Lead-In and Lead-Out          : No
Fill up missing offset samples with silence : Yes
Delete leading and trailing silent blocks   : No
Null samples used in CRC calculations       : Yes
Used interface                              : Native Win32 interface for Win NT & 2000

Used output format              : User Defined Encoder
Selected bitrate                : 896 kBit/s
Quality                         : High
Add ID3 tag                     : No
Command line compressor         : C:\Program Files (x86)\Exact Audio Copy\Flac\flac.exe
Additional command line options : -V -8 -T "Date=%year%" -T "Genre=%genre%" %source%

TOC of the extracted CD

     Track |   Start  |  Length  | Start sector | End sector
    ---------------------------------------------------------
        1  |  0:00.00 |  3:41.55 |         0    |    16629   
        2  |  3:41.55 |  2:48.62 |     16630    |    29291   
        3  |  6:30.42 |  2:52.25 |     29292    |    42216   
        4  |  9:22.67 |  3:50.03 |     42217    |    59469   
        5  | 13:12.70 |  4:18.65 |     59470    |    78884   
        6  | 17:31.60 |  2:34.32 |     78885    |    90466   
        7  | 20:06.17 |  4:41.45 |     90467    |   111586   
        8  | 24:47.62 |  3:22.33 |    111587    |   126769   
        9  | 28:10.20 |  3:28.17 |    126770    |   142386   
       10  | 31:38.37 |  4:25.05 |    142387    |   162266   
       11  | 36:03.42 |  5:51.50 |    162267    |   188641   
       12  | 41:55.17 |  2:55.00 |    188642    |   201766   
       13  | 44:50.17 |  4:02.50 |    201767    |   219966   
       14  | 48:52.67 |  2:30.18 |    219967    |   231234   
       15  | 51:23.10 |  2:31.57 |    231235    |   242616   

Range status and errors

Selected range

     Filename D:\Зоопарк\(2000) ЗОО-парк - реМАЙК [CDMAN054-00]\ЗОО-парк - реМАЙК.wav

     Peak level 95.9 %
     Extraction speed 1.9 X
     Range quality 100.0 %
     Test CRC 1F9BC149
     Copy CRC 1F9BC149
     Copy OK

No errors occurred

 
AccurateRip summary
 
Track  1  accurately ripped (confidence 1)  [16C9158A]  (AR v2)
Track  2  accurately ripped (confidence 1)  [8C164868]  (AR v2)
Track  3  accurately ripped (confidence 1)  [00020333]  (AR v2)
Track  4  accurately ripped (confidence 1)  [3F70A0B7]  (AR v2)
Track  5  accurately ripped (confidence 1)  [4813CAE5]  (AR v2)
Track  6  accurately ripped (confidence 1)  [A9DBA472]  (AR v2)
Track  7  accurately ripped (confidence 1)  [6E811879]  (AR v2)
Track  8  accurately ripped (confidence 1)  [CF9232DC]  (AR v2)
Track  9  accurately ripped (confidence 1)  [B2F87B64]  (AR v2)
Track 10  accurately ripped (confidence 1)  [32576963]  (AR v2)
Track 11  accurately ripped (confidence 1)  [086A5270]  (AR v2)
Track 12  accurately ripped (confidence 1)  [4167D538]  (AR v2)
Track 13  accurately ripped (confidence 1)  [A6B3A551]  (AR v2)
Track 14  accurately ripped (confidence 1)  [3DD9B3C7]  (AR v2)
Track 15  accurately ripped (confidence 1)  [B2CC6063]  (AR v2)
 
All tracks accurately ripped

End of status report

---- CUETools DB Plugin V2.1.6

[CTDB TOCID: tBAWNWgF_S94AhWovQ640qpKV0k-] disk not present in database
Submit result: tBAWNWgF_S94AhWovQ640qpKV0k- has been uploaded

==== Log checksum AC2F2E5D03AD8F96FEDBFF353991BD807A71DC9F62F44C1710AD92A330F3529B ====

Код:

REM GENRE Rock
REM DATE 2000
REM DISCID D20CA20F
REM COMMENT ExactAudioCopy v1.1
PERFORMER "ЗОО-Парк"
TITLE "реМАЙК [Manchester Files, CDMAN054-00]"
FILE "ЗОО-Парк - реМАЙК.flac" WAVE
  TRACK 01 AUDIO
    TITLE "Я Забываю"
    INDEX 01 00:00:00
  TRACK 02 AUDIO
    TITLE "Лунная Серенада"
    INDEX 00 03:38:22
    INDEX 01 03:41:55
  TRACK 03 AUDIO
    TITLE "Ты, Я и Домбай"
    INDEX 00 06:28:22
    INDEX 01 06:30:42
  TRACK 04 AUDIO
    TITLE "Мария"
    INDEX 00 09:21:27
    INDEX 01 09:22:67
  TRACK 05 AUDIO
    TITLE "Горький Ангел"
    INDEX 00 13:10:70
    INDEX 01 13:12:70
  TRACK 06 AUDIO
    TITLE "Хождения"
    INDEX 00 17:29:57
    INDEX 01 17:31:60
  TRACK 07 AUDIO
    TITLE "Салоны"
    INDEX 00 20:04:50
    INDEX 01 20:06:17
  TRACK 08 AUDIO
    TITLE "Эй, Моряк!"
    INDEX 00 24:45:00
    INDEX 01 24:47:62
  TRACK 09 AUDIO
    TITLE "Ах, Любовь!"
    INDEX 00 28:08:32
    INDEX 01 28:10:20
  TRACK 10 AUDIO
    TITLE "Гопники"
    INDEX 00 31:36:22
    INDEX 01 31:38:37
  TRACK 11 AUDIO
    TITLE "Блюз Субботнего Вечера"
    INDEX 00 36:01:52
    INDEX 01 36:03:42
  TRACK 12 AUDIO
    TITLE "Жизнь в Зоопарке"
    INDEX 00 41:52:45
    INDEX 01 41:55:17
  TRACK 13 AUDIO
    TITLE "Казачья Колыбельная"
    INDEX 00 44:46:70
    INDEX 01 44:50:17
  TRACK 14 AUDIO
    TITLE "Твой Новый Пудель"
    INDEX 00 48:49:50
    INDEX 01 48:52:67
  TRACK 15 AUDIO
    TITLE "20 Лет Назад"
    INDEX 00 51:22:00
    INDEX 01 51:23:10

Этот торрент недоступен для скачивания без регистрации, однако доступен по публичной magnet-ссылке (источники с публичных трекеров). Перед использованием ссылки прочтите, пожалуйста Пользовательское соглашение, а также как можно дольше оставайтесь на раздаче! Для того, чтобы скачать сам торрент-файл (который видит больше источников), а также для того, чтобы поблагодарить релизера, вам необходимо зарегистрироваться. Если регистрироваться лень - вы можете также попробовать скачать релиз по нашим партнерским ссылкам ниже. Кроме того, зарегистрированным пользователям не показывается всплывающая реклама при скачивании.

[underverse.me].t96304.torrent
Трекер: Зарегистрирован   [ 12.02.2018 06:26 ]  

Статус: проверено (by Бишеп at 12.02.2018 06:27)
Поблагодарили: пока никто не поблагодарил...
Тип торрента: публичный - доступные источники с открытых трекеров: 
Размер: 336 MB (занимает 0,08 DVDR, для записи нужно 1 болванка DVDR/RW)
 
 
Похожие темы
Форум Тема Автор Торрент Отв. Посл. сооб.
Зарубежный Punk, Hardcore, Grunge, Alternative (Rock, Alternative, Soft rock) Bertrand Cantat - Amor Fati (2017) [MP3, 320 kbps CBR] Darkferse
2 | 0

0 | 502

2

07.12.2017 23:28

Отечественный Punk, Grunge, Alternative (Rock, Alternative Rock) Ю-Питер - Гудгора (2015) [MP3, 320 kbps] terra07
30 | 1

0 | 1390

13

02.03.2015 20:48

Cборники (Rock, Alternative, Hard Rock, Pop Rock, Classic Rock) VA - Rock Road Trip: The Ultimate Collection (5CD) (2018) [MP3, 320 kbps CBR] 90ytr90
46 | 0

0 | 1112

13

29.07.2018 07:19

Зарубежный Punk, Grunge, Alternative (Lossless) (Rock, Alternative Rock, Garage Punk) Oh Sees (Thee Oh Sees) - Orc (2017) [FLAC (Tracks), Lossless] Web Бишеп
5 | 1

0 | 613

1

20.02.2018 19:10

Отечественный Punk, Grunge, Alternative (Lossless) (Rock, Alternative Rock) Алиса - Блок Ада (2015) [FLAC (Image+.CUE), Lossless] Бишеп
7 | 0

0 | 1455

17

19.08.2015 05:45

Отечественный Punk, Grunge, Alternative (Lossless) (Rock, Alternative Rock) Чиж & Co - Бомбардировщики (1997) [FLAC (Tracks+.CUE), Lossless] Бишеп
0 | 0

0 | 1088

6

28.01.2017 14:41

Архив (рок) (Rock, Alternative) Three Days Grace - Three Days Grace (2003) [MP3, 320 kbps] M-i-i-i-ke
0 | 0

1 | 1658

0

17.02.2011 14:46

Архив (рок) (Rock, Alternative) Three Days Grace - One-X (2006) [MP3, 192 kbps] M-i-i-i-ke
0 | 0

2 | 2190

1

17.02.2011 14:46

Архив (рок) (Rock, Alternative) Three Days Grace - Life Starts Now (2009) [MP3, 320 kbps] M-i-i-i-ke
0 | 0

1 | 1582

7

16.06.2011 08:09

Архив (HQ рок) (Rock, Alternative Rock) Алиса - Саботаж (2012) [WAVPack (Image+.CUE), Lossless] Бишеп
0 | 0

1 | 1242

5

25.05.2018 15:49


Яндекс.Метрика powered by Sphinx


В Н И М А Н И Е
Сайт не распространяет и не хранит электронные версии произведений, а лишь бесплатно и без коммерческой выгоды (не требуя взамен платы,
SMS и т.д.) предоставляет доступ к создаваемому пользователями каталогу ссылок на торрент-файлы, которые содержат только списки хеш-сумм.
Убедительная просьба с жалобами обращаться напрямую к пользователю, разместившему торрент файл.

Вверх