Loading...
Error

(Alternative Rock, Indie Rock ) Би-2 - ... и Корабль Плывёт (Deluxe Edition 2CD) (2016) [FLAC (Image+.Cue), Lossless]

Статистика раздачи
Размер:  630 MB   |    Зарегистрирован:  7 месяцев   |    Скачан:  3 раза

Полного источника не было: 8 дней

Сидов:  0  |  0 KB/s  ]   Личеров:  0  |  0 KB/s  ]

* - сиды/пиры с внешних источников

   
 
Автор Сообщение

Бишеп Пол:Муж

12-Фев-2018 12:44

Би-2 - ... и Корабль Плывёт

Жанр: Alternative Rock, Indie Rock
Год выпуска: 2016
Источник: CD
Производитель диска: Мистерия Звука - CD-M+406-2
Аудиокодек: FLAC
Тип рипа: Image+.CUE
Битрейт аудио: lossless
Продолжительность: 01:23:25

Треклист:
01. И корабль плывет... (3:53)
02. Восток (3:54)
03. Сердце (5:10)
04. Мой друг (4:53)
05. Счастье (4:08)
06. Никто не придет (5:16)
07. Полковнику ни кто не пишет (4:56)
08. Деньги на ветер (6:36)
09. Медленно схожу с ума (5:52)
10. Варвара (5:02)
11. Серебро (4:35)

Код:

Exact Audio Copy V1.0 beta 3 from 29. August 2011

Отчёт EAC об извлечении, выполненном 25. мая 2016, 17:26

Би-2 / ... и корабль плывёт

Дисковод: PIONEER DVD-RW  DVR-218L   Adapter: 0  ID: 0

Режим чтения                 : Достоверность
Использование точного потока : Да
Отключение кэша аудио        : Да
Использование указателей C2  : Нет

Коррекция смещения при чтении                     : 6
Способность читать области Lead-in и Lead-out     : Нет
Заполнение пропущенных сэмплов тишиной            : Да
Удаление блоков с тишиной в начале и конце        : Нет
При вычислениях CRC использовались нулевые сэмплы : Да
Интерфейс                                         : Встроенный Win32-интерфейс для Win NT/2000

Выходной формат          : Пользовательский кодировщик
Выбранный битрейт        : 128 kBit/s
Качество                 : Высокий
Добавление ID3-тега      : Нет
Утилита сжатия           : C:\Program Files (x86)\Exact Audio Copy\Flac\flac.exe
Дополнительные параметры : -V -7 -T "Genre=%genre%" -T "Artist=%artist%" -T "Title=%title%" -T "Album=%albumtitle%" -T "Date=%year%" -T "Tracknumber=%tracknr%" -T "Comment=%comment%" %source%

TOC извлечённого CD

     Трек |   Старт  | Длительность | Начальный сектор | Конечный сектор
    ---------------------------------------------------------------------
       1  |  0:00.00 |    3:52.73   |           0      |      17472     
       2  |  3:52.73 |    3:53.67   |       17473      |      35014     
       3  |  7:46.65 |    5:10.18   |       35015      |      58282     
       4  | 12:57.08 |    4:52.60   |       58283      |      80242     
       5  | 17:49.68 |    4:07.65   |       80243      |      98832     
       6  | 21:57.58 |    5:16.30   |       98833      |     122562     
       7  | 27:14.13 |    4:56.22   |      122563      |     144784     
       8  | 32:10.35 |    6:36.15   |      144785      |     174499     
       9  | 38:46.50 |    5:52.32   |      174500      |     200931     
      10  | 44:39.07 |    5:02.00   |      200932      |     223581     
      11  | 49:41.07 |    4:35.30   |      223582      |     244236     

Характеристики диапазона извлечения и сообщения об ошибках

Выбранный диапазон

     Имя файла E:\_VIDEO\_seriaЛЫ_\!!!muz\Би-2 - ... и корабль плывёт [2xCD] (2016)\Би-2 - ... и корабль плывёт (2016).wav

     Пиковый уровень 100.0 %
     Скорость извлечения 1.9 X
     Качество диапазона 100.0 %
     CRC теста 5F37C40B
     CRC копии 5F37C40B
     Копирование... OK

Ошибок не произошло

 
AccurateRip: сводка
 
Трек  1  отсутствует в базе данных
Трек  2  отсутствует в базе данных
Трек  3  отсутствует в базе данных
Трек  4  отсутствует в базе данных
Трек  5  отсутствует в базе данных
Трек  6  отсутствует в базе данных
Трек  7  отсутствует в базе данных
Трек  8  отсутствует в базе данных
Трек  9  отсутствует в базе данных
Трек 10  отсутствует в базе данных
Трек 11  отсутствует в базе данных
 
Ни одного трека нет в базе AccurateRip

Конец отчёта

==== Контрольная сумма отчёта AF88B91194671E02AD8FB2E506E93D60E930B9345E46E858965DE31F0A0F6842 ====

Код:

REM GENRE Rock
REM DATE 2016
REM DISCID A00CB80B
REM COMMENT "ExactAudioCopy v1.0b3"
PERFORMER "Би-2"
TITLE "... и корабль плывёт"
FILE "Би-2 - ... и корабль плывёт (2016).flac" WAVE
  TRACK 01 AUDIO
    TITLE "И корабль плывет..."
    PERFORMER "Би-2"
    FLAGS DCP
    INDEX 01 00:00:00
  TRACK 02 AUDIO
    TITLE "Восток"
    PERFORMER "Би-2"
    FLAGS DCP
    INDEX 00 03:50:73
    INDEX 01 03:52:73
  TRACK 03 AUDIO
    TITLE "Сердце"
    PERFORMER "Би-2"
    FLAGS DCP
    INDEX 00 07:44:65
    INDEX 01 07:46:65
  TRACK 04 AUDIO
    TITLE "Мой друг"
    PERFORMER "Би-2"
    FLAGS DCP
    INDEX 00 12:55:08
    INDEX 01 12:57:08
  TRACK 05 AUDIO
    TITLE "Счастье"
    PERFORMER "Би-2"
    FLAGS DCP
    INDEX 00 17:47:68
    INDEX 01 17:49:68
  TRACK 06 AUDIO
    TITLE "Никто не придет"
    PERFORMER "Би-2"
    FLAGS DCP
    INDEX 00 21:55:58
    INDEX 01 21:57:58
  TRACK 07 AUDIO
    TITLE "Полковнику ни кто не пишет"
    PERFORMER "Би-2"
    FLAGS DCP
    INDEX 00 27:12:13
    INDEX 01 27:14:13
  TRACK 08 AUDIO
    TITLE "Деньги на ветер"
    PERFORMER "Би-2"
    FLAGS DCP
    INDEX 00 32:08:35
    INDEX 01 32:10:35
  TRACK 09 AUDIO
    TITLE "Медленно схожу с ума"
    PERFORMER "Би-2"
    FLAGS DCP
    INDEX 00 38:44:50
    INDEX 01 38:46:50
  TRACK 10 AUDIO
    TITLE "Варвара"
    PERFORMER "Би-2"
    FLAGS DCP
    INDEX 00 44:37:07
    INDEX 01 44:39:07
  TRACK 11 AUDIO
    TITLE "Серебро"
    PERFORMER "Би-2"
    FLAGS DCP
    INDEX 00 49:39:07
    INDEX 01 49:41:07
Треклист:
01. И корабль плывет... (remix by Ernie O, Melbourne 1999) (4:30)
02. Варвара (feat. dj Zeel, Live@Heidelberg Tennis Club, Melbourne 1998) (4:49)
03. Медленно схожу с ума (remix by Ernie O, Melbourne 1999) (5:52)
04. Варвара (feat. dj Zeel, dance remix by Ernie O, Melbourne 1999) (5:21)
05. Счастье (remix by Ernie O, Melbourne 1999) (4:14)
06. Серебро (акустическая версия) (4:22)

Код:

Exact Audio Copy V1.0 beta 3 from 29. August 2011

Отчёт EAC об извлечении, выполненном 25. мая 2016, 16:19

Би-2 / ... и корабль плывёт (bonus)

Дисковод: PIONEER DVD-RW  DVR-218L   Adapter: 0  ID: 0

Режим чтения                 : Достоверность
Использование точного потока : Да
Отключение кэша аудио        : Да
Использование указателей C2  : Нет

Коррекция смещения при чтении                     : 6
Способность читать области Lead-in и Lead-out     : Нет
Заполнение пропущенных сэмплов тишиной            : Да
Удаление блоков с тишиной в начале и конце        : Нет
При вычислениях CRC использовались нулевые сэмплы : Да
Интерфейс                                         : Встроенный Win32-интерфейс для Win NT/2000

Выходной формат          : Пользовательский кодировщик
Выбранный битрейт        : 128 kBit/s
Качество                 : Высокий
Добавление ID3-тега      : Нет
Утилита сжатия           : C:\Program Files (x86)\Exact Audio Copy\Flac\flac.exe
Дополнительные параметры : -V -7 -T "Genre=%genre%" -T "Artist=%artist%" -T "Title=%title%" -T "Album=%albumtitle%" -T "Date=%year%" -T "Tracknumber=%tracknr%" -T "Comment=%comment%" %source%

TOC извлечённого CD

     Трек |   Старт  | Длительность | Начальный сектор | Конечный сектор
    ---------------------------------------------------------------------
       1  |  0:00.00 |    4:29.46   |           0      |      20220     
       2  |  4:29.46 |    4:48.67   |       20221      |      41887     
       3  |  9:18.38 |    5:52.26   |       41888      |      68313     
       4  | 15:10.64 |    5:21.12   |       68314      |      92400     
       5  | 20:32.01 |    4:14.08   |       92401      |     111458     
       6  | 24:46.09 |    4:22.37   |      111459      |     131145     

Характеристики диапазона извлечения и сообщения об ошибках

Выбранный диапазон

     Имя файла E:\_VIDEO\_seriaЛЫ_\!!!muz\Би-2 - ... и корабль плывёт [2xCD] (2016)\Би-2 - ... и корабль плывёт [bonus] (2016).wav

     Пиковый уровень 97.9 %
     Скорость извлечения 1.6 X
     Качество диапазона 99.9 %
     CRC теста 8153C9E2
     CRC копии 8153C9E2
     Копирование... OK

Ошибок не произошло

 
AccurateRip: сводка
 
Трек  1  отсутствует в базе данных
Трек  2  отсутствует в базе данных
Трек  3  отсутствует в базе данных
Трек  4  отсутствует в базе данных
Трек  5  отсутствует в базе данных
Трек  6  отсутствует в базе данных
 
Ни одного трека нет в базе AccurateRip

Конец отчёта

==== Контрольная сумма отчёта 6E6F1AB89F8A30D4BF85B3B8A9E10858B4E09E65CAD232A2188326D0037F6DE2 ====

Код:

REM GENRE Rock
REM DATE 2016
REM DISCID 4206D406
REM COMMENT "ExactAudioCopy v1.0b3"
PERFORMER "Би-2"
TITLE "... и корабль плывёт (bonus)"
FILE "Би-2 - ... и корабль плывёт [bonus] (2016).flac" WAVE
  TRACK 01 AUDIO
    TITLE "И корабль плывет... (remix by Ernie O, Melbourne 1999)"
    PERFORMER "Би-2"
    FLAGS DCP
    INDEX 01 00:00:00
  TRACK 02 AUDIO
    TITLE "Варвара (feat. dj Zeel, Live@Heidelberg Tennis Club, Melbourne 1998)"
    PERFORMER "Би-2"
    FLAGS DCP
    INDEX 00 04:27:46
    INDEX 01 04:29:46
  TRACK 03 AUDIO
    TITLE "Медленно схожу с ума (remix by Ernie O, Melbourne 1999)"
    PERFORMER "Би-2"
    FLAGS DCP
    INDEX 00 09:16:38
    INDEX 01 09:18:38
  TRACK 04 AUDIO
    TITLE "Варвара (feat. dj Zeel, dance remix by Ernie O, Melbourne 1999)"
    PERFORMER "Би-2"
    FLAGS DCP
    INDEX 00 15:08:64
    INDEX 01 15:10:64
  TRACK 05 AUDIO
    TITLE "Счастье (remix by Ernie O, Melbourne 1999)"
    PERFORMER "Би-2"
    FLAGS DCP
    INDEX 00 20:30:01
    INDEX 01 20:32:01
  TRACK 06 AUDIO
    TITLE "Серебро (акустическая версия)"
    PERFORMER "Би-2"
    FLAGS DCP
    INDEX 00 24:44:09
    INDEX 01 24:46:09

Discogs

Этот торрент недоступен для скачивания без регистрации, однако доступен по публичной magnet-ссылке (источники с публичных трекеров). Перед использованием ссылки прочтите, пожалуйста Пользовательское соглашение, а также как можно дольше оставайтесь на раздаче! Для того, чтобы скачать сам торрент-файл (который видит больше источников), а также для того, чтобы поблагодарить релизера, вам необходимо зарегистрироваться. Если регистрироваться лень - вы можете также попробовать скачать релиз по нашим партнерским ссылкам ниже. Кроме того, зарегистрированным пользователям не показывается всплывающая реклама при скачивании.

[underverse.me].t96315.torrent
Трекер: Зарегистрирован   [ 12.02.2018 12:44 ]  

Статус: проверено (by Бишеп at 12.02.2018 12:44)
Поблагодарили: пока никто не поблагодарил...
Тип торрента: публичный - доступные источники с открытых трекеров: 
Размер: 630 MB (занимает 0,14 DVDR, для записи нужно 1 болванка DVDR/RW)
 
 
Похожие темы
Форум Тема Автор Торрент Отв. Посл. сооб.
Зарубежная Pop Музыка (Alternative Pop, Neo Soul, Indie) Amanda Jenssen - Sanger fran on (2015) [MP3, 320 kbps] 90ytr90
1 | 0

0 | 1212

3

23.03.2015 19:02

Зарубежная Pop Музыка (Alternative, Indie) Anna of the North - Lovers (2017) [MP3, 320 kbps CBR] Darkferse
3 | 0

0 | 867

4

13.09.2017 08:47

Зарубежная Pop Музыка (Alternative, Pop, Soul) Plan B - Heaven Before All Hell Breaks Loose (2018) [MP3, 320 kbps CBR] 90ytr90
35 | 0

0 | 353

3

03.06.2018 05:52

Зарубежный Hard, Progressive, Soft, Melodic, AOR, Folk, Classic Rock (Alternative Rock / Progressive Rock) Muse - The 2nd Law (2012) [MP3, 320 kbps] Jimmy
0 | 0

0 | 1429

13

27.09.2012 04:30

Зарубежный Black, Death, Heavy, Thrash, Power, Folk, Gothic Metal (Alternative Metal) This Tragic Day - This Tragic Day (2012) [MP3, 320 kbps] NiiggazCPT
1 | 0

0 | 1597

4

28.10.2012 07:21

Зарубежный Punk, Hardcore, Grunge, Alternative (Alternative) Green Day - Greatest Hits: God's Favorite Band (2017) [iTunes AAC M4A, 256 kbps VBR] Web garry
1 | 0

5 | 3954

1

04.02.2010 17:52

Зарубежный Punk, Hardcore, Grunge, Alternative (Alternative) Red Hot Chili Peppers - Greatest Hits (2003) [iTunes AAC M4A, 256 kbps VBR] Web garry
2 | 0

0 | 2253

3

02.06.2009 18:51

Зарубежный Punk, Hardcore, Grunge, Alternative (Alternative) The Killers - Discography (2004-2013) [iTunes AAC M4A, 256 kbps VBR] Web garry
13 | 3

0 | 6659

4

20.06.2009 12:07

Зарубежный Punk, Hardcore, Grunge, Alternative (Alternative, Pop-Punk, Female Vocal) We Are the In Crowd - Weird Kids [Deluxe Edition] (2014) [MP3, 320 kbps] Jimmy
1 | 0

0 | 1248

3

23.04.2014 15:58

Зарубежный Punk, Hardcore, Grunge, Alternative (Alternative, Pop Punk, Emo) Fireworks - (Oh), Common Life (2014) [MP3, 320 kbps] Jimmy
0 | 1

0 | 1043

4

23.04.2014 15:55


Яндекс.Метрика powered by Sphinx


В Н И М А Н И Е
Сайт не распространяет и не хранит электронные версии произведений, а лишь бесплатно и без коммерческой выгоды (не требуя взамен платы,
SMS и т.д.) предоставляет доступ к создаваемому пользователями каталогу ссылок на торрент-файлы, которые содержат только списки хеш-сумм.
Убедительная просьба с жалобами обращаться напрямую к пользователю, разместившему торрент файл.

Вверх