Loading...
Error

(Alternative Rock) Би-2 - Би-2 (2000) [FLAC (Image+.CUE), Lossless]

Статистика раздачи
Размер:  457 MB   |    Зарегистрирован:  6 месяцев   |    Скачан:  2 раза

Полного источника не было: 56 минут

Сидов:  0  |  0 KB/s  ]   Личеров:  0  |  0 KB/s  ]

* - сиды/пиры с внешних источников

   
 
Автор Сообщение

Бишеп Пол:Муж

12-Фев-2018 13:47

Би-2 - Би-2

Жанр: Alternative Rock
Год выпуска: 2000
Источник: CD
Производитель диска: Epic - 498549 1
Аудиокодек: FLAC
Тип рипа: Image+.CUE
Битрейт аудио: lossless
Продолжительность: 00:58:20


Треклист:
01. Полковнику никто не пишет
02. Варвара
03. Никто не придёт
04. Мой друг
05. И корабль плывёт
06. Восток
07. Сердце
08. Счастье
09. Деньги на ветер
10. Медленно схожу с ума
11. Серебро
12. Серебро (Акустическая Версия)

Код:

Exact Audio Copy V1.0 beta 3 from 29. August 2011

EAC extraction logfile from 28. May 2012, 18:43

Би-2 / Би-2

Used drive  : HL-DT-STDVDRAM GSA-T10N   Adapter: 0  ID: 0

Read mode               : Secure
Utilize accurate stream : Yes
Defeat audio cache      : Yes
Make use of C2 pointers : No

Read offset correction                      : 667
Overread into Lead-In and Lead-Out          : No
Fill up missing offset samples with silence : Yes
Delete leading and trailing silent blocks   : No
Null samples used in CRC calculations       : Yes
Used interface                              : Installed external ASPI interface

Used output format              : User Defined Encoder
Selected bitrate                : 1024 kBit/s
Quality                         : High
Add ID3 tag                     : No
Command line compressor         : D:\Program Files\Exact Audio Copy\Flac\flac.exe
Additional command line options : -V -8 -T "Genre=%genre%" -T "Artist=%artist%" -T "Title=%title%" -T "Album=%albumtitle%" -T "Date=%year%" -T "Tracknumber=%tracknr%" -T "Comment=%comment%" %source%

TOC of the extracted CD

     Track |   Start  |  Length  | Start sector | End sector
    ---------------------------------------------------------
        1  |  0:00.00 |  4:52.02 |         0    |    21901   
        2  |  4:52.02 |  5:01.03 |     21902    |    44479   
        3  |  9:53.05 |  5:13.60 |     44480    |    68014   
        4  | 15:06.65 |  4:51.53 |     68015    |    89892   
        5  | 19:58.43 |  3:50.20 |     89893    |   107162   
        6  | 23:48.63 |  3:51.67 |    107163    |   124554   
        7  | 27:40.55 |  5:07.52 |    124555    |   147631   
        8  | 32:48.32 |  4:06.43 |    147632    |   166124   
        9  | 36:55.00 |  6:33.58 |    166125    |   195657   
       10  | 43:28.58 |  5:50.47 |    195658    |   221954   
       11  | 49:19.30 |  4:37.09 |    221955    |   242738   
       12  | 53:56.39 |  4:24.06 |    242739    |   262544   

Range status and errors

Selected range

     Filename D:\Desktop - копия\Би-2 - Би-2 (2000)\Би-2 - Би-2.wav

     Peak level 100.0 %
     Extraction speed 3.8 X
     Range quality 99.9 %
     Test CRC EBD363A9
     Copy CRC EBD363A9
     Copy OK

No errors occurred

 
AccurateRip summary
 
Track  1  accurately ripped (confidence 2)  [50D8E8A5]  (AR v2)
Track  2  accurately ripped (confidence 2)  [7D80D63D]  (AR v2)
Track  3  accurately ripped (confidence 2)  [1F675BC8]  (AR v2)
Track  4  accurately ripped (confidence 2)  [488CD9A0]  (AR v2)
Track  5  accurately ripped (confidence 2)  [DED09469]  (AR v2)
Track  6  accurately ripped (confidence 2)  [5E217AD1]  (AR v2)
Track  7  accurately ripped (confidence 2)  [A38E41B8]  (AR v2)
Track  8  accurately ripped (confidence 2)  [C0E7FE40]  (AR v2)
Track  9  accurately ripped (confidence 2)  [A8989B38]  (AR v2)
Track 10  accurately ripped (confidence 2)  [EB8C00B2]  (AR v2)
Track 11  accurately ripped (confidence 2)  [50CE4E60]  (AR v2)
Track 12  accurately ripped (confidence 2)  [CAEDB485]  (AR v2)
 
All tracks accurately ripped

End of status report

==== Log checksum 3C049CB14918D00A5C05A99687AF6B673E9218A97E9ABA051ACE0E8422C09C5E ====

Код:

REM GENRE Rock
REM DATE 2000
REM DISCID 970DAC0C
REM COMMENT "ExactAudioCopy v1.0b3"
PERFORMER "Би-2"
TITLE "Би-2"
FILE "Би-2 - Би-2.flac" WAVE
  TRACK 01 AUDIO
    TITLE "Полковнику никто не пишет"
    PERFORMER "Би-2"
    INDEX 01 00:00:00
  TRACK 02 AUDIO
    TITLE "Варвара"
    PERFORMER "Би-2"
    INDEX 01 04:52:02
  TRACK 03 AUDIO
    TITLE "Никто не придёт"
    PERFORMER "Би-2"
    INDEX 01 09:53:05
  TRACK 04 AUDIO
    TITLE "Мой друг"
    PERFORMER "Би-2"
    INDEX 01 15:06:65
  TRACK 05 AUDIO
    TITLE "И корабль плывёт"
    PERFORMER "Би-2"
    INDEX 01 19:58:43
  TRACK 06 AUDIO
    TITLE "Восток"
    PERFORMER "Би-2"
    INDEX 01 23:48:63
  TRACK 07 AUDIO
    TITLE "Сердце"
    PERFORMER "Би-2"
    INDEX 01 27:40:55
  TRACK 08 AUDIO
    TITLE "Счастье"
    PERFORMER "Би-2"
    INDEX 01 32:48:32
  TRACK 09 AUDIO
    TITLE "Деньги на ветер"
    PERFORMER "Би-2"
    INDEX 01 36:55:00
  TRACK 10 AUDIO
    TITLE "Медленно схожу с ума"
    PERFORMER "Би-2"
    INDEX 01 43:28:58
  TRACK 11 AUDIO
    TITLE "Серебро"
    PERFORMER "Би-2"
    INDEX 01 49:19:30
  TRACK 12 AUDIO
    TITLE "Серебро (Акустическая Версия)"
    PERFORMER "Би-2"
    INDEX 00 53:54:39
    INDEX 01 53:56:39

Discogs

Этот торрент недоступен для скачивания без регистрации, однако доступен по публичной magnet-ссылке (источники с публичных трекеров). Перед использованием ссылки прочтите, пожалуйста Пользовательское соглашение, а также как можно дольше оставайтесь на раздаче! Для того, чтобы скачать сам торрент-файл (который видит больше источников), а также для того, чтобы поблагодарить релизера, вам необходимо зарегистрироваться. Если регистрироваться лень - вы можете также попробовать скачать релиз по нашим партнерским ссылкам ниже. Кроме того, зарегистрированным пользователям не показывается всплывающая реклама при скачивании.

[underverse.me].t96316.torrent
Трекер: Зарегистрирован   [ 12.02.2018 13:47 ]  

Статус: проверено (by Бишеп at 12.02.2018 13:50)
Поблагодарили: пока никто не поблагодарил...
Тип торрента: публичный - доступные источники с открытых трекеров: 
Размер: 457 MB (занимает 0,1 DVDR, для записи нужно 1 болванка DVDR/RW)
 
 
Похожие темы
Форум Тема Автор Торрент Отв. Посл. сооб.
Зарубежная Pop Музыка (Alternative Pop, Neo Soul, Indie) Amanda Jenssen - Sanger fran on (2015) [MP3, 320 kbps] 90ytr90
1 | 1

0 | 1177

3

23.03.2015 19:02

Зарубежная Pop Музыка (Alternative, Indie) Anna of the North - Lovers (2017) [MP3, 320 kbps CBR] Darkferse
5 | 0

0 | 832

4

13.09.2017 08:47

Зарубежная Pop Музыка (Alternative, Pop, Soul) Plan B - Heaven Before All Hell Breaks Loose (2018) [MP3, 320 kbps CBR] 90ytr90
41 | 3

0 | 292

3

03.06.2018 05:52

Зарубежный Hard, Progressive, Soft, Melodic, AOR, Folk, Classic Rock (Alternative Rock / Progressive Rock) Muse - The 2nd Law (2012) [MP3, 320 kbps] Jimmy
0 | 0

0 | 1393

13

27.09.2012 04:30

Зарубежный Black, Death, Heavy, Thrash, Power, Folk, Gothic Metal (Alternative Metal) This Tragic Day - This Tragic Day (2012) [MP3, 320 kbps] NiiggazCPT
1 | 0

0 | 1570

4

28.10.2012 07:21

Зарубежный Punk, Hardcore, Grunge, Alternative (Alternative) Green Day - Greatest Hits: God's Favorite Band (2017) [iTunes AAC M4A, 256 kbps VBR] Web garry
1 | 0

5 | 3912

1

04.02.2010 17:52

Зарубежный Punk, Hardcore, Grunge, Alternative (Alternative) Red Hot Chili Peppers - Greatest Hits (2003) [iTunes AAC M4A, 256 kbps VBR] Web garry
1 | 0

0 | 2173

2

02.06.2009 18:51

Зарубежный Punk, Hardcore, Grunge, Alternative (Alternative) The Killers - Discography (2004-2013) [iTunes AAC M4A, 256 kbps VBR] Web garry
18 | 4

0 | 6306

4

20.06.2009 12:07

Зарубежный Punk, Hardcore, Grunge, Alternative (Alternative, Pop-Punk, Female Vocal) We Are the In Crowd - Weird Kids [Deluxe Edition] (2014) [MP3, 320 kbps] Jimmy
3 | 0

0 | 1219

3

23.04.2014 15:58

Зарубежный Punk, Hardcore, Grunge, Alternative (Alternative, Pop Punk, Emo) Fireworks - (Oh), Common Life (2014) [MP3, 320 kbps] Jimmy
1 | 0

0 | 1015

4

23.04.2014 15:55


Яндекс.Метрика powered by Sphinx


В Н И М А Н И Е
Сайт не распространяет и не хранит электронные версии произведений, а лишь бесплатно и без коммерческой выгоды (не требуя взамен платы,
SMS и т.д.) предоставляет доступ к создаваемому пользователями каталогу ссылок на торрент-файлы, которые содержат только списки хеш-сумм.
Убедительная просьба с жалобами обращаться напрямую к пользователю, разместившему торрент файл.

Вверх