Loading...
Error

Шерлок / Sherlock / Сезон: 4 / Серии: 1-3 из 3 (Пол МакГиган, Ник Харран, Коки Гидройч) [2017 г., триллер, драма, криминал, WEBRip 1080p] Dub (Первый Канал) + Original + Subs (rus, eng)

Статистика раздачи
Размер:  15,33 GB   |    Зарегистрирован:  11 месяцев   |    Скачан:  37 раз

Полного источника не было: 13 часов

Сидов:  0  |  0 KB/s  ]   Личеров:  0  |  0 KB/s  ]

* - сиды/пиры с внешних источников

   
 
Автор Сообщение

Паукан Пол:Муж

13-Фев-2018 18:45

Шерлок / Sherlock


Год выпуска: 2017
Страна: Великобритания
Жанр: триллер, драма, криминал
Продолжительность: 1:28:26 + 1:29:05 + 1:28:59

Перевод: Профессиональный (дублированный) Первый Канал

Режиссёр: Пол МакГиган, Ник Харран, Коки Гидройч
В ролях: Бенедикт Камбербэтч, Мартин Фриман, Уна Стаббс, Руперт Грейвз, Луиза Брили, Марк Гейтисс, Эндрю Скотт, Джонатан Арис, Аманда Аббингтон, Винетт Робинсон

Описание: Три новых серии, как обычно, основаны на фрагментах нескольких рассказов. По их названиям можно предположить, что использованы сюжетные линии из «Шести Наполеонов» и «Шерлок Холмс при смерти».
В первой серии, «Шесть Тэтчер», речь идет о преступлении, при расследовании которого Шерлок неожиданно зацикливается на незначительной детали: злоумышленники уничтожают бюсты экс-премьера Великобритании Маргарет Тэтчер (в рассказе Артура Конан Дойля — бюсты Наполеона). Разгадка, по мнению Холмса, кроется в прошлом Мэри Ватсон.
Во второй серии, как и в одноименном рассказе, появляется Кэлвертон Смит — опасный злодей с таинственным прошлым. У Конан Дойля Смит безуспешно пытается убить самого Холмса с помощью редкого тропического яда, а в сериале ему, похоже, отведена роль главного злодея сезона.

Сэмпл: https://yadi.sk/i/QBYxf68u36cZdK

Качество: WEBRip 1080p
Контейнер: MKV
Видео: AVC, 1920x1080, 16:9, 25.000 fps, 7473 Kbps
Аудио: Русский, AC-3, 48.0 KHz, stereo, 192 Kbps
Аудио 2: Английский, E-AC-3, 48.0 KHz, 5.1, 640 Kbps (Внимание: кодек E-AC-3 не поддерживается многими аппаратными плеерами и ресиверами, а так-же некоторыми старыми версиями плееров)
Субтитры: Английские (SDH), Русские
Реклама: Отсутствует
Список серий:
  • 01: The Six Thatchers / Шесть Тэтчер
  • 02: The Lying Detective / Шерлок при смерти
  • 03: The Final Problem / Последнее дело
General
Unique ID : 208392201267736593015651616878596535752 (0x9CC6E0C887702F75F9B799E9D9E135C8)
Complete name : Sherlock.S04E01.1080p.WEBRip.rus-eng.mkv
Format : Matroska
Format version : Version 4 / Version 2
File size : 5.52 GiB
Duration : 1h 28mn
Overall bit rate : 8 942 Kbps
Movie name : Sherlock S04E01 The Six Thatchers (1080p WebRIP) (English, Russian)
Encoded date : UTC 2017-01-03 10:49:01
Writing application : mkvmerge v6.7.0 ('Back to the Ground') 32bit built on Jan 9 2014 18:02:58
Writing library : libebml v1.3.0 + libmatroska v1.4.1
Cover : cover

Video
ID : 1
Format : AVC
Format/Info : Advanced Video Codec
Format profile : High@L4.1
Format settings, CABAC : Yes
Format settings, ReFrames : 4 frames
Codec ID : V_MPEG4/ISO/AVC
Duration : 1h 28mn
Bit rate : 7 932 Kbps
Width : 1 920 pixels
Height : 1 080 pixels
Display aspect ratio : 16:9
Frame rate mode : Constant
Frame rate : 25.000 fps
Color space : YUV
Chroma subsampling : 4:2:0
Bit depth : 8 bits
Scan type : Progressive
Bits/(Pixel*Frame) : 0.153
Stream size : 4.90 GiB (89%)
Title : Sherlock S04E01 The Six Thatchers (1080p WebRIP, English)
Writing library : x264 core 148 r2744kMod b97ae06
Encoding settings : cabac=1 / ref=4 / deblock=1:-3:-3 / analyse=0x3:0x113 / me=umh / subme=10 / psy=1 / fade_compensate=0.00 / psy_rd=1.00:0.00 / mixed_ref=1 / me_range=48 / chroma_me=1 / trellis=2 / 8x8dct=1 / cqm=0 / deadzone=21,11 / fast_pskip=0 / chroma_qp_offset=-2 / threads=12 / lookahead_threads=2 / sliced_threads=0 / nr=0 / decimate=1 / interlaced=0 / bluray_compat=0 / constrained_intra=0 / bframes=9 / b_pyramid=2 / b_adapt=2 / b_bias=0 / direct=3 / weightb=1 / open_gop=0 / weightp=2 / keyint=250 / keyint_min=23 / scenecut=40 / intra_refresh=0 / rc_lookahead=40 / rc=crf / mbtree=0 / crf=17.0000 / qcomp=0.60 / qpmin=0 / qpmax=69 / qpstep=4 / vbv_maxrate=50000 / vbv_bufsize=65000 / crf_max=0.0 / nal_hrd=none / filler=0 / ip_ratio=1.30 / pb_ratio=1.20 / aq=3:0.80
Language : English
Default : Yes
Forced : No

Audio #1
ID : 2
Format : AC-3
Format/Info : Audio Coding 3
Mode extension : CM (complete main)
Format settings, Endianness : Big
Codec ID : A_AC3
Duration : 1h 28mn
Bit rate mode : Constant
Bit rate : 192 Kbps
Channel(s) : 2 channels
Channel positions : Front: L R
Sampling rate : 48.0 KHz
Bit depth : 16 bits
Compression mode : Lossy
Stream size : 121 MiB (2%)
Title : Первый канал (дубляж)
Language : Russian
Default : Yes
Forced : No

Audio #2
ID : 3
Format : E-AC-3
Format/Info : Audio Coding 3
Format settings, Endianness : Big
Codec ID : A_EAC3
Duration : 1h 28mn
Bit rate mode : Constant
Bit rate : 640 Kbps
Channel(s) : 6 channels
Channel positions : Front: L C R, Side: L R, LFE
Sampling rate : 48.0 KHz
Compression mode : Lossy
Stream size : 405 MiB (7%)
Title : English
Language : English
Default : No
Forced : No

Text #1
ID : 4
Format : UTF-8
Codec ID : S_TEXT/UTF8
Codec ID/Info : UTF-8 Plain Text
Title : English (SDH)
Language : English
Default : No
Forced : No

Text #2
ID : 5
Format : UTF-8
Codec ID : S_TEXT/UTF8
Codec ID/Info : UTF-8 Plain Text
Title : Russian (Full) (студия Focs)
Language : Russian
Default : Yes
Forced : No
General
Unique ID : 170309692335112572595579455821387537686 (0x8020742103A4199CC9F2A63C5FC21D16)
Complete name : Sherlock.S04E02.1080p.WEBRip.rus-eng.mkv
Format : Matroska
Format version : Version 4 / Version 2
File size : 5.37 GiB
Duration : 1h 29mn
Overall bit rate : 8 630 Kbps
Movie name : Sherlock S04E01 The Lying Detective (1080p WebRIP) (English, Russian)
Encoded date : UTC 2017-01-10 10:16:58
Writing application : mkvmerge v6.7.0 ('Back to the Ground') 32bit built on Jan 9 2014 18:02:58
Writing library : libebml v1.3.0 + libmatroska v1.4.1
Cover : cover

Video
ID : 1
Format : AVC
Format/Info : Advanced Video Codec
Format profile : High@L4.1
Format settings, CABAC : Yes
Format settings, ReFrames : 4 frames
Codec ID : V_MPEG4/ISO/AVC
Duration : 1h 29mn
Bit rate : 7 626 Kbps
Width : 1 920 pixels
Height : 1 080 pixels
Display aspect ratio : 16:9
Frame rate mode : Constant
Frame rate : 25.000 fps
Color space : YUV
Chroma subsampling : 4:2:0
Bit depth : 8 bits
Scan type : Progressive
Bits/(Pixel*Frame) : 0.147
Stream size : 4.75 GiB (88%)
Title : Sherlock S04E02 The Lying Detective (1080p WebRIP, English)
Writing library : x264 core 148 r2744kMod b97ae06
Encoding settings : cabac=1 / ref=4 / deblock=1:-3:-3 / analyse=0x3:0x113 / me=umh / subme=10 / psy=1 / fade_compensate=0.00 / psy_rd=1.00:0.00 / mixed_ref=1 / me_range=48 / chroma_me=1 / trellis=2 / 8x8dct=1 / cqm=0 / deadzone=21,11 / fast_pskip=0 / chroma_qp_offset=-2 / threads=12 / lookahead_threads=2 / sliced_threads=0 / nr=0 / decimate=1 / interlaced=0 / bluray_compat=0 / constrained_intra=0 / bframes=9 / b_pyramid=2 / b_adapt=2 / b_bias=0 / direct=3 / weightb=1 / open_gop=0 / weightp=2 / keyint=250 / keyint_min=23 / scenecut=40 / intra_refresh=0 / rc_lookahead=40 / rc=crf / mbtree=0 / crf=17.0000 / qcomp=0.60 / qpmin=0 / qpmax=69 / qpstep=4 / vbv_maxrate=50000 / vbv_bufsize=65000 / crf_max=0.0 / nal_hrd=none / filler=0 / ip_ratio=1.30 / pb_ratio=1.20 / aq=3:0.80
Language : English
Default : Yes
Forced : No

Audio #1
ID : 2
Format : AC-3
Format/Info : Audio Coding 3
Mode extension : CM (complete main)
Format settings, Endianness : Big
Codec ID : A_AC3
Duration : 1h 29mn
Bit rate mode : Constant
Bit rate : 192 Kbps
Channel(s) : 2 channels
Channel positions : Front: L R
Sampling rate : 48.0 KHz
Bit depth : 16 bits
Compression mode : Lossy
Stream size : 122 MiB (2%)
Title : Первый канал (дубляж)
Language : Russian
Default : Yes
Forced : No

Audio #2
ID : 3
Format : E-AC-3
Format/Info : Audio Coding 3
Format settings, Endianness : Big
Codec ID : A_EAC3
Duration : 1h 29mn
Bit rate mode : Constant
Bit rate : 640 Kbps
Channel(s) : 6 channels
Channel positions : Front: L C R, Side: L R, LFE
Sampling rate : 48.0 KHz
Compression mode : Lossy
Stream size : 408 MiB (7%)
Title : English
Language : English
Default : No
Forced : No

Text #1
ID : 4
Format : UTF-8
Codec ID : S_TEXT/UTF8
Codec ID/Info : UTF-8 Plain Text
Title : Russian (opensubtitles id:6847675, timing fix)
Language : Russian
Default : No
Forced : No

Text #2
ID : 5
Format : UTF-8
Codec ID : S_TEXT/UTF8
Codec ID/Info : UTF-8 Plain Text
Title : English (SDH)
Language : English
Default : No
Forced : No

Text #3
ID : 6
Format : UTF-8
Codec ID : S_TEXT/UTF8
Codec ID/Info : UTF-8 Plain Text
Title : English (opensubtitles id:6847816, timing fix)
Language : English
Default : No
Forced : No
General
Unique ID : 283233573214648610833228424984763554387 (0xD514CD4F480BD986E1FD3BE5184BDA53)
Complete name : Sherlock.S04E03.1080p.WEBRip.rus-eng.mkv
Format : Matroska
Format version : Version 4 / Version 2
File size : 4.44 GiB
Duration : 1h 28mn
Overall bit rate : 7 139 Kbps
Movie name : Sherlock S04E03 The Final Problem (1080p WebRIP) (English, Russian)
Encoded date : UTC 2017-01-16 17:52:55
Writing application : mkvmerge v6.7.0 ('Back to the Ground') 32bit built on Jan 9 2014 18:02:58
Writing library : libebml v1.3.0 + libmatroska v1.4.1
Cover : cover

Video
ID : 1
Format : AVC
Format/Info : Advanced Video Codec
Format profile : High@L4.1
Format settings, CABAC : Yes
Format settings, ReFrames : 4 frames
Codec ID : V_MPEG4/ISO/AVC
Duration : 1h 28mn
Bit rate : 6 165 Kbps
Width : 1 920 pixels
Height : 1 080 pixels
Display aspect ratio : 16:9
Frame rate mode : Constant
Frame rate : 25.000 fps
Color space : YUV
Chroma subsampling : 4:2:0
Bit depth : 8 bits
Scan type : Progressive
Bits/(Pixel*Frame) : 0.119
Stream size : 3.83 GiB (86%)
Title : Sherlock S04E03 The Final Problem (1080p WebRIP, English)
Writing library : x264 core 148 r2744kMod b97ae06
Encoding settings : cabac=1 / ref=4 / deblock=1:-3:-3 / analyse=0x3:0x113 / me=umh / subme=10 / psy=1 / fade_compensate=0.00 / psy_rd=1.00:0.00 / mixed_ref=1 / me_range=48 / chroma_me=1 / trellis=2 / 8x8dct=1 / cqm=0 / deadzone=21,11 / fast_pskip=0 / chroma_qp_offset=-2 / threads=12 / lookahead_threads=2 / sliced_threads=0 / nr=0 / decimate=1 / interlaced=0 / bluray_compat=0 / constrained_intra=0 / bframes=9 / b_pyramid=2 / b_adapt=2 / b_bias=0 / direct=3 / weightb=1 / open_gop=0 / weightp=2 / keyint=250 / keyint_min=23 / scenecut=40 / intra_refresh=0 / rc_lookahead=40 / rc=crf / mbtree=0 / crf=17.0000 / qcomp=0.60 / qpmin=0 / qpmax=69 / qpstep=4 / vbv_maxrate=50000 / vbv_bufsize=65000 / crf_max=0.0 / nal_hrd=none / filler=0 / ip_ratio=1.30 / pb_ratio=1.20 / aq=3:0.80
Language : English
Default : Yes
Forced : No

Audio #1
ID : 2
Format : AC-3
Format/Info : Audio Coding 3
Mode extension : CM (complete main)
Format settings, Endianness : Big
Codec ID : A_AC3
Duration : 1h 28mn
Bit rate mode : Constant
Bit rate : 192 Kbps
Channel(s) : 2 channels
Channel positions : Front: L R
Sampling rate : 48.0 KHz
Bit depth : 16 bits
Compression mode : Lossy
Stream size : 122 MiB (3%)
Title : Первый канал (дубляж)
Language : Russian
Default : Yes
Forced : No

Audio #2
ID : 3
Format : E-AC-3
Format/Info : Audio Coding 3
Format settings, Endianness : Big
Codec ID : A_EAC3
Duration : 1h 28mn
Bit rate mode : Constant
Bit rate : 640 Kbps
Channel(s) : 6 channels
Channel positions : Front: L C R, Side: L R, LFE
Sampling rate : 48.0 KHz
Compression mode : Lossy
Stream size : 407 MiB (9%)
Title : English
Language : English
Default : No
Forced : No

Text #1
ID : 4
Format : UTF-8
Codec ID : S_TEXT/UTF8
Codec ID/Info : UTF-8 Plain Text
Title : Russian (opensubtitles id:6855165, timing fix)
Language : Russian
Default : No
Forced : No

Text #2
ID : 5
Format : UTF-8
Codec ID : S_TEXT/UTF8
Codec ID/Info : UTF-8 Plain Text
Title : English
Language : English
Default : No
Forced : No

Text #3
ID : 6
Format : UTF-8
Codec ID : S_TEXT/UTF8
Codec ID/Info : UTF-8 Plain Text
Title : English (SDH)
Language : English
Default : No
Forced : No

Этот торрент недоступен для скачивания без регистрации, однако доступен по публичной magnet-ссылке (источники с публичных трекеров). Перед использованием ссылки прочтите, пожалуйста Пользовательское соглашение, а также как можно дольше оставайтесь на раздаче! Для того, чтобы скачать сам торрент-файл (который видит больше источников), а также для того, чтобы поблагодарить релизера, вам необходимо зарегистрироваться. Если регистрироваться лень - вы можете также попробовать скачать релиз по нашим партнерским ссылкам ниже. Кроме того, зарегистрированным пользователям не показывается всплывающая реклама при скачивании.

[underverse.me].t96372.torrent
Трекер: Зарегистрирован   [ 13.02.2018 18:45 ]  

Статус: проверено (by Паукан at 13.02.2018 18:45)
Поблагодарили: 1 человек
Тип торрента: публичный - доступные источники с открытых трекеров: 
Размер: 15,33 GB (занимает 3,5 DVDR, для записи нужно 4 болванки DVDR/RW)
 
 
Похожие темы
Форум Тема Автор Торрент Отв. Посл. сооб.
Зарубежные сериалы Шерлок / Sherlock / Сезон: 3 / Серии: 1-3 (Пол МакГиган) [2014 г., детектив, HDTVRip] Dub garry
1000 | 521

12 | 11098

135

25.07.2014 18:09

Зарубежные сериалы [BD / Remux / BDRip / WEB-DL / HDTV 1080/720р] Шерлок / Sherlock / Сезон: 1-3 (3) / Серии: 1-9 (9) (Пол Макгиган, Евро Лин) [2010-2014 г., триллер, драма, криминал, детектив, BDRip 1080p] Dub (Первый канал) + Original Паукан
89 | 39

0 | 1405

18

13.02.2018 18:37

Зарубежные сериалы [BD / Remux / BDRip / WEB-DL / HDTV 1080/720р] Шерлок / Sherlock / Сезон 1-2 / Серии 1-6 (6) (Пол МакГиган) [2010-2012 г., триллер, драма, криминал, детектив, BDRip 720p] Dub + Original Чертёнок
5 | 5

1 | 2968

111

13.04.2013 05:17

Зарубежные сериалы [BD / Remux / BDRip / WEB-DL / HDTV 1080/720р] Шерлок / Sherlock (Дуглас МакКиннон) (4 сезон: 0-3 серий из 3) (Дуглас МакКиннон) [2016 г., криминал, драма, мистика, HDTVRip 720p] Dub (Первый канал) Паукан
69 | 23

2 | 2742

30

22.01.2017 14:43

Архив (Сериалы) Шерлок / Sherlock [Season 1, All episodes] (Пол МакГиган) [2010 г., криминальный, детектив, BDRip/HDTVRip] Ollleg
0 | 0

11 | 2923

3

31.01.2018 16:55

xeemoff 

23-Май-2018 17:47

спасибо! годный сериал

Яндекс.Метрика powered by Sphinx


В Н И М А Н И Е
Сайт не распространяет и не хранит электронные версии произведений, а лишь бесплатно и без коммерческой выгоды (не требуя взамен платы,
SMS и т.д.) предоставляет доступ к создаваемому пользователями каталогу ссылок на торрент-файлы, которые содержат только списки хеш-сумм.
Убедительная просьба с жалобами обращаться напрямую к пользователю, разместившему торрент файл.

Вверх