Loading...
Error

(Alternative Rock, Downtempo, Pop Rock) Линда - Атака (Limited Edition) (2004) [FLAC (Image+.Cue) Lossless]

Статистика раздачи
Размер:  385 MB   |    Зарегистрирован:  7 месяцев   |    Скачан:  3 раза

Полного источника не было: 2 месяца 1 день

Сидов:  0  |  0 KB/s  ]   Личеров:  0  |  0 KB/s  ]

* - сиды/пиры с внешних источников

   
 
Автор Сообщение

Бишеп Пол:Муж

14-Фев-2018 06:56

Линда - Атака

Жанр: Alternative Rock, Downtempo, Pop Rock
Год выпуска: 2004
Источник: CD
Производитель диска: Universal Music Russia - 982 503-2
Аудиокодек: FLAC
Тип рипа: Image+.CUE
Битрейт аудио: lossless
Продолжительность: 00:54:35


Треклист:
01. Охота
02. Мир против нас
03. Леска
04. Цепи и кольца
05. Агония
06. Пуля
07. Страх
08. Беги
09. Город-музей
10. Так кричали птицы
11. В пропасть
12. Мысли-пираньи
13. Подвиги
14. Боль

Код:

Exact Audio Copy V0.99 prebeta 5 from 4. May 2009

Отчёт EAC об извлечении, выполненном 20. октября 2010, 11:21

Линда / Атака

Дисковод: ASUS    DRW-24B1ST   Adapter: 1  ID: 0

Режим чтения                 : Достоверность
Использование точного потока : Да
Отключение кэша аудио        : Да
Использование указателей C2  : Нет

Коррекция смещения при чтении                     : 6
Способность читать области Lead-in и Lead-out     : Нет
Заполнение пропущенных сэмплов тишиной            : Да
Удаление блоков с тишиной в начале и конце        : Нет
При вычислениях CRC использовались нулевые сэмплы : Да
Интерфейс                                         : Встроенный Win32-интерфейс для Win NT/2000

Выходной формат : Внутренние WAV-операции
Формат сэмплов  : 44.100 Гц; 16 бит; стерео

TOC извлечённого CD

     Трек |   Старт  | Длительность | Начальный сектор | Конечный сектор
    ---------------------------------------------------------------------
       1  |  0:00.00 |    2:25.31   |           0      |      10905     
       2  |  2:25.31 |    3:22.10   |       10906      |      26065     
       3  |  5:47.41 |    4:42.58   |       26066      |      47273     
       4  | 10:30.24 |    3:37.04   |       47274      |      63552     
       5  | 14:07.28 |    3:24.42   |       63553      |      78894     
       6  | 17:31.70 |    3:34.25   |       78895      |      94969     
       7  | 21:06.20 |    4:18.58   |       94970      |     114377     
       8  | 25:25.03 |    4:32.16   |      114378      |     134793     
       9  | 29:57.19 |    4:19.02   |      134794      |     154220     
      10  | 34:16.21 |    4:17.03   |      154221      |     173498     
      11  | 38:33.24 |    3:06.01   |      173499      |     187449     
      12  | 41:39.25 |    4:03.67   |      187450      |     205741     
      13  | 45:43.17 |    5:09.24   |      205742      |     228940     
      14  | 50:52.41 |    3:42.40   |      228941      |     245630     

Характеристики диапазона извлечения и сообщения об ошибках

Выбранный диапазон

     Имя файла E:\раздачи видео на снос\Линда - Атака - 2004 (подарочное издание)  (lossless)\Линда - Атака.wav

     Пиковый уровень 98.8 %
     Качество диапазона 100.0 %
     CRC теста 8A362798
     CRC копии 8A362798
     Копирование... OK

Ошибок не произошло

 
AccurateRip: сводка
 
Трек  1  точное извлечение (доверие 4)  [BC84DB15]
Трек  2  точное извлечение (доверие 4)  [A81DA5AF]
Трек  3  точное извлечение (доверие 4)  [2A4F02AE]
Трек  4  точное извлечение (доверие 4)  [53180E41]
Трек  5  точное извлечение (доверие 3)  [040E9C3F]
Трек  6  точное извлечение (доверие 4)  [75B86BC2]
Трек  7  точное извлечение (доверие 4)  [92B04601]
Трек  8  точное извлечение (доверие 4)  [9B91A2DE]
Трек  9  точное извлечение (доверие 4)  [92A88E8F]
Трек 10  точное извлечение (доверие 4)  [AC068BD1]
Трек 11  точное извлечение (доверие 4)  [76574D62]
Трек 12  точное извлечение (доверие 4)  [0B83BEA2]
Трек 13  точное извлечение (доверие 4)  [7694D4D7]
Трек 14  точное извлечение (доверие 3)  [32F145DB]
 
Все треки извлечены точно

Конец отчёта

Код:

REM GENRE Alternative
REM DATE 2004
REM DISCID C10CCB0E
REM COMMENT "ExactAudioCopy v0.99pb5"
PERFORMER "Линда"
TITLE "Атака"
FILE "Линда - Атака.wav" WAVE
  TRACK 01 AUDIO
    TITLE "Охота"
    PERFORMER "Линда"
    INDEX 01 00:00:00
  TRACK 02 AUDIO
    TITLE "Мир против нас"
    PERFORMER "Линда"
    INDEX 01 02:25:31
  TRACK 03 AUDIO
    TITLE "Леска"
    PERFORMER "Линда"
    INDEX 01 05:47:41
  TRACK 04 AUDIO
    TITLE "Цепи и кольца"
    PERFORMER "Линда"
    INDEX 01 10:30:24
  TRACK 05 AUDIO
    TITLE "Агония"
    PERFORMER "Линда"
    INDEX 01 14:07:28
  TRACK 06 AUDIO
    TITLE "Пуля"
    PERFORMER "Линда"
    INDEX 01 17:31:70
  TRACK 07 AUDIO
    TITLE "Страх"
    PERFORMER "Линда"
    INDEX 01 21:06:20
  TRACK 08 AUDIO
    TITLE "Беги"
    PERFORMER "Линда"
    INDEX 01 25:25:03
  TRACK 09 AUDIO
    TITLE "Город-музей"
    PERFORMER "Линда"
    INDEX 01 29:57:19
  TRACK 10 AUDIO
    TITLE "Так кричали птицы"
    PERFORMER "Линда"
    INDEX 01 34:16:21
  TRACK 11 AUDIO
    TITLE "В пропасть"
    PERFORMER "Линда"
    INDEX 01 38:33:24
  TRACK 12 AUDIO
    TITLE "Мысли-пираньи"
    PERFORMER "Линда"
    INDEX 01 41:39:25
  TRACK 13 AUDIO
    TITLE "Подвиги"
    PERFORMER "Линда"
    INDEX 01 45:43:17
  TRACK 14 AUDIO
    TITLE "Боль"
    PERFORMER "Линда"
    INDEX 01 50:52:41

Discogs

Этот торрент недоступен для скачивания без регистрации, однако доступен по публичной magnet-ссылке (источники с публичных трекеров). Перед использованием ссылки прочтите, пожалуйста Пользовательское соглашение, а также как можно дольше оставайтесь на раздаче! Для того, чтобы скачать сам торрент-файл (который видит больше источников), а также для того, чтобы поблагодарить релизера, вам необходимо зарегистрироваться. Если регистрироваться лень - вы можете также попробовать скачать релиз по нашим партнерским ссылкам ниже. Кроме того, зарегистрированным пользователям не показывается всплывающая реклама при скачивании.

[underverse.me].t96388.torrent
Трекер: Зарегистрирован   [ 14.02.2018 06:56 ]  

Статус: проверено (by Бишеп at 14.02.2018 06:56)
Поблагодарили: пока никто не поблагодарил...
Тип торрента: публичный - доступные источники с открытых трекеров: 
Размер: 385 MB (занимает 0,09 DVDR, для записи нужно 1 болванка DVDR/RW)
 
 
Похожие темы
Форум Тема Автор Торрент Отв. Посл. сооб.
Зарубежная Pop Музыка (Alternative Pop, Neo Soul, Indie) Amanda Jenssen - Sanger fran on (2015) [MP3, 320 kbps] 90ytr90
1 | 0

0 | 1212

3

23.03.2015 19:02

Зарубежная Pop Музыка (Alternative, Indie) Anna of the North - Lovers (2017) [MP3, 320 kbps CBR] Darkferse
3 | 0

0 | 867

4

13.09.2017 08:47

Зарубежная Pop Музыка (Alternative, Pop, Soul) Plan B - Heaven Before All Hell Breaks Loose (2018) [MP3, 320 kbps CBR] 90ytr90
35 | 0

0 | 354

3

03.06.2018 05:52

Зарубежный Hard, Progressive, Soft, Melodic, AOR, Folk, Classic Rock (Alternative Rock / Progressive Rock) Muse - The 2nd Law (2012) [MP3, 320 kbps] Jimmy
0 | 0

0 | 1429

13

27.09.2012 04:30

Зарубежный Black, Death, Heavy, Thrash, Power, Folk, Gothic Metal (Alternative Metal) This Tragic Day - This Tragic Day (2012) [MP3, 320 kbps] NiiggazCPT
1 | 0

0 | 1597

4

28.10.2012 07:21

Зарубежный Punk, Hardcore, Grunge, Alternative (Alternative) Green Day - Greatest Hits: God's Favorite Band (2017) [iTunes AAC M4A, 256 kbps VBR] Web garry
1 | 0

5 | 3954

1

04.02.2010 17:52

Зарубежный Punk, Hardcore, Grunge, Alternative (Alternative) Red Hot Chili Peppers - Greatest Hits (2003) [iTunes AAC M4A, 256 kbps VBR] Web garry
2 | 0

0 | 2253

3

02.06.2009 18:51

Зарубежный Punk, Hardcore, Grunge, Alternative (Alternative) The Killers - Discography (2004-2013) [iTunes AAC M4A, 256 kbps VBR] Web garry
13 | 3

0 | 6659

4

20.06.2009 12:07

Зарубежный Punk, Hardcore, Grunge, Alternative (Alternative, Pop-Punk, Female Vocal) We Are the In Crowd - Weird Kids [Deluxe Edition] (2014) [MP3, 320 kbps] Jimmy
1 | 0

0 | 1248

3

23.04.2014 15:58

Зарубежный Punk, Hardcore, Grunge, Alternative (Alternative, Pop Punk, Emo) Fireworks - (Oh), Common Life (2014) [MP3, 320 kbps] Jimmy
0 | 1

0 | 1043

4

23.04.2014 15:55


Яндекс.Метрика powered by Sphinx


В Н И М А Н И Е
Сайт не распространяет и не хранит электронные версии произведений, а лишь бесплатно и без коммерческой выгоды (не требуя взамен платы,
SMS и т.д.) предоставляет доступ к создаваемому пользователями каталогу ссылок на торрент-файлы, которые содержат только списки хеш-сумм.
Убедительная просьба с жалобами обращаться напрямую к пользователю, разместившему торрент файл.

Вверх