Loading...
Error

(Punk Rock) Наив - Populism (2015) [FLAC (Image+.Cue), Lossless]

Статистика раздачи
Размер:  592 MB   |    Зарегистрирован:  7 месяцев   |    Скачан:  1 раз

Полного источника не было: 1 месяц 8 дней

Сидов:  0  |  0 KB/s  ]   Личеров:  0  |  0 KB/s  ]

* - сиды/пиры с внешних источников

   
 
Автор Сообщение

Бишеп Пол:Муж

14-Фев-2018 15:17

Наив - Populism

Жанр: Punk Rock
Год выпуска: 2015
Источник: CD
Производитель диска: Soyuz Music - SZCD 6260-15
Аудиокодек: FLAC
Тип рипа: Image+.CUE
Битрейт аудио: lossless
Продолжительность: 00:46:27


Треклист:
01. Антиутопия
02. Другие
03. 20 Лет Одиночества
04. Вверх!
05. И Снова Осень
06. Интерлюдия
07. Тройка
08. Война
09. Ранетое Сердце
10. С Тобой
11. На Пределе
12. Прощай

Код:

Exact Audio Copy V1.1 from 23. June 2015

EAC extraction logfile from 2. December 2015, 20:08

Наив / Populism

Used drive  : SlimtypeDVD A  DU8A5SH   Adapter: 1  ID: 0

Read mode               : Secure
Utilize accurate stream : Yes
Defeat audio cache      : Yes
Make use of C2 pointers : No

Read offset correction                      : 6
Overread into Lead-In and Lead-Out          : No
Fill up missing offset samples with silence : Yes
Delete leading and trailing silent blocks   : No
Null samples used in CRC calculations       : Yes
Used interface                              : Native Win32 interface for Win NT & 2000

Used output format              : User Defined Encoder
Selected bitrate                : 1024 kBit/s
Quality                         : High
Add ID3 tag                     : No
Command line compressor         : C:\Program Files (x86)\Exact Audio Copy\Flac\flac.exe
Additional command line options : -T "COMMENT=by k0ste for *другой трекер*" -V -8 -T "Date=%year%" -T "Genre=%genre%" %source%

TOC of the extracted CD

     Track |   Start  |  Length  | Start sector | End sector
    ---------------------------------------------------------
        1  |  0:00.25 |  2:14.39 |        25    |    10113   
        2  |  2:14.64 |  2:50.08 |     10114    |    22871   
        3  |  5:04.72 |  5:15.53 |     22872    |    46549   
        4  | 10:20.50 |  4:22.25 |     46550    |    66224   
        5  | 14:43.00 |  2:54.03 |     66225    |    79277   
        6  | 17:37.03 |  0:42.69 |     79278    |    82496   
        7  | 18:19.72 |  3:17.15 |     82497    |    97286   
        8  | 21:37.12 |  3:14.02 |     97287    |   111838   
        9  | 24:51.14 |  4:00.00 |    111839    |   129838   
       10  | 28:51.14 |  2:33.01 |    129839    |   141314   
       11  | 31:24.15 |  4:00.11 |    141315    |   159325   
       12  | 35:24.26 | 11:03.26 |    159326    |   209076   

Range status and errors

Selected range

     Filename Z:\mnt\nas\PIZDA\2015 - Populism.wav

     Peak level 100.0 %
     Extraction speed 1.9 X
     Range quality 100.0 %
     Test CRC 3BB10024
     Copy CRC 3BB10024
     Copy OK

No errors occurred

 
AccurateRip summary
 
Track  1  not present in database
Track  2  not present in database
Track  3  not present in database
Track  4  not present in database
Track  5  not present in database
Track  6  not present in database
Track  7  not present in database
Track  8  not present in database
Track  9  not present in database
Track 10  not present in database
Track 11  not present in database
Track 12  not present in database
 
None of the tracks are present in the AccurateRip database

End of status report

==== Log checksum 83CC2D73B7B8F93546767EF2AC23B80707A82BDED9DE356145C42AEB25D518E3 ====

Код:

REM GENRE "Punk Rock"
REM DATE 2015
REM DISCID 9C0AE30C
REM COMMENT "ExactAudioCopy v1.1"
PERFORMER "Наив"
TITLE "Populism"
FILE "2015 - Populism.flac" WAVE
  TRACK 01 AUDIO
    TITLE "Антиутопия"
    PERFORMER "Наив"
    INDEX 00 00:00:00
    INDEX 01 00:00:25
  TRACK 02 AUDIO
    TITLE "Другие"
    PERFORMER "Наив"
    INDEX 01 02:14:64
  TRACK 03 AUDIO
    TITLE "20 Лет Одиночества"
    PERFORMER "Наив"
    INDEX 00 05:04:19
    INDEX 01 05:04:72
  TRACK 04 AUDIO
    TITLE "Вверх!"
    PERFORMER "Наив"
    INDEX 00 10:20:44
    INDEX 01 10:20:50
  TRACK 05 AUDIO
    TITLE "И Снова Осень"
    PERFORMER "Наив"
    INDEX 00 14:42:41
    INDEX 01 14:43:00
  TRACK 06 AUDIO
    TITLE "Интерлюдия"
    PERFORMER "Наив"
    INDEX 00 17:36:16
    INDEX 01 17:37:03
  TRACK 07 AUDIO
    TITLE "Тройка"
    PERFORMER "Наив"
    INDEX 01 18:19:72
  TRACK 08 AUDIO
    TITLE "Война"
    PERFORMER "Наив"
    INDEX 00 21:36:42
    INDEX 01 21:37:12
  TRACK 09 AUDIO
    TITLE "Ранетное Сердце"
    PERFORMER "Наив"
    INDEX 00 24:50:22
    INDEX 01 24:51:14
  TRACK 10 AUDIO
    TITLE "С Тобой"
    PERFORMER "Наив"
    INDEX 00 28:50:58
    INDEX 01 28:51:14
  TRACK 11 AUDIO
    TITLE "На Пределе"
    PERFORMER "Наив"
    INDEX 00 31:22:68
    INDEX 01 31:24:15
  TRACK 12 AUDIO
    TITLE "Прощай"
    PERFORMER "Наив"
    INDEX 00 35:21:61
    INDEX 01 35:24:26

Discogs

Этот торрент недоступен для скачивания без регистрации, однако доступен по публичной magnet-ссылке (источники с публичных трекеров). Перед использованием ссылки прочтите, пожалуйста Пользовательское соглашение, а также как можно дольше оставайтесь на раздаче! Для того, чтобы скачать сам торрент-файл (который видит больше источников), а также для того, чтобы поблагодарить релизера, вам необходимо зарегистрироваться. Если регистрироваться лень - вы можете также попробовать скачать релиз по нашим партнерским ссылкам ниже. Кроме того, зарегистрированным пользователям не показывается всплывающая реклама при скачивании.

[underverse.me].t96403.torrent
Трекер: Зарегистрирован   [ 14.02.2018 15:17 ]  

Статус: проверено (by Бишеп at 14.02.2018 15:17)
Поблагодарили: пока никто не поблагодарил...
Тип торрента: публичный - доступные источники с открытых трекеров: 
Размер: 592 MB (занимает 0,13 DVDR, для записи нужно 1 болванка DVDR/RW)
 
 
Похожие темы
Форум Тема Автор Торрент Отв. Посл. сооб.
Зарубежный Punk, Hardcore, Grunge, Alternative (Punk Rock/Street Punk) BRDigung - In Goldenen Ketten (2014) [MP3, 320 kbps] Jimmy
1 | 0

0 | 1124

4

23.04.2014 16:00

Зарубежный Punk, Hardcore, Grunge, Alternative (Punk Rock/Heavy Punk) Desakato - Buen Viaje (2014) [MP3, 320 kbps] Jimmy
1 | 0

0 | 836

5

23.04.2014 15:53

Зарубежный Punk, Hardcore, Grunge, Alternative (Punk Rock) Richie Ramone - Entitled [ex-Ramones] (2013) [MP3, 320 kbps] Jimmy
1 | 0

0 | 2112

2

21.12.2013 08:03

Зарубежный Punk, Hardcore, Grunge, Alternative (Punk Rock/Old School Pop Punk) The Bugs - 2 альбома (The Bugs/Missile To The Middle East) (2008/2013) [MP3, 320 kbps] Jimmy
1 | 0

0 | 2180

0

21.12.2013 08:06

Зарубежный Punk, Hardcore, Grunge, Alternative (Punk Rock) The So So Glos - Blowout (2013) [MP3, 320 kbps] Jimmy
1 | 0

0 | 1873

1

04.01.2014 10:17

Зарубежный Punk, Hardcore, Grunge, Alternative (Punk Rock | Melodic Hardcore) Noopinion - No Chains For Change (2013) [MP3, 320 kbps] Jimmy
0 | 0

0 | 1821

2

04.01.2014 14:20

Зарубежный Punk, Hardcore, Grunge, Alternative (Punk Rock) Stiff Little Fingers - No Going Back (2014) [MP3, 320 kbps] Jimmy
1 | 6

0 | 1805

5

23.03.2014 05:20

Зарубежный Punk, Hardcore, Grunge, Alternative (Punk Rock, Skate Punk, Melodic Punk) Authority Zero - Broadcasting To The Nations (2017) [MP3, 320 kbps CBR] Darkferse
2 | 0

0 | 899

2

02.06.2017 15:14

Зарубежный Punk, Hardcore, Grunge, Alternative (Punk Rock, Reggae) Anti-Nowhere League - League Style (Loosen Up Volume 1) (2017) [MP3, 320 kbps CBR] Darkferse
1 | 1

0 | 502

1

05.06.2017 23:58

Зарубежный Punk, Hardcore, Grunge, Alternative (Punk Rock) Beatsteaks - YOURS (2017) [MP3, 320 kbps CBR] Darkferse
1 | 0

0 | 571

1

06.09.2017 10:18


Яндекс.Метрика powered by Sphinx


В Н И М А Н И Е
Сайт не распространяет и не хранит электронные версии произведений, а лишь бесплатно и без коммерческой выгоды (не требуя взамен платы,
SMS и т.д.) предоставляет доступ к создаваемому пользователями каталогу ссылок на торрент-файлы, которые содержат только списки хеш-сумм.
Убедительная просьба с жалобами обращаться напрямую к пользователю, разместившему торрент файл.

Вверх