Loading...
Error

(Alternative Rock) Дельфин (Dolphin) - Звезда (2004) [FLAC (Tracks+.Cue), Lossless]

Статистика раздачи
Размер:  365 MB   |    Зарегистрирован:  6 месяцев   |    Скачан:  1 раз
Сидов:  1  |  0 KB/s  ]   Личеров:  0  |  0 KB/s  ]

* - сиды/пиры с внешних источников

   
 
Автор Сообщение

Бишеп Пол:Муж

15-Фев-2018 09:02

Дельфин (Dolphin) - Звезда

Жанр: Alternative Rock
Год выпуска: 2004
Источник: CD
Производитель диска: Universal Music
Аудиокодек: FLAC
Тип рипа: Tracks+.CUE
Битрейт аудио: lossless
Продолжительность: 01:00:07


Треклист:
01. Сумерки
02. Серебро
03. Чужой
04. Весна
05. Имя
06. Романс
07. Тоска
08. Облака
09. Звезда
10. Киберпанк
11. MDMA + Глаза (Bonus Track)

Код:

Exact Audio Copy V0.99 prebeta 4 from 23. January 2008

EAC extraction logfile from 3. January 2009, 17:59

Dolphin / Zvezda

Used drive  : Optiarc DVD RW AD-7203S   Adapter: 0  ID: 1

Read mode               : Secure
Utilize accurate stream : Yes
Defeat audio cache      : Yes
Make use of C2 pointers : No

Read offset correction                      : 48
Overread into Lead-In and Lead-Out          : No
Fill up missing offset samples with silence : Yes
Delete leading and trailing silent blocks   : No
Null samples used in CRC calculations       : Yes
Used interface                              : Native Win32 interface for Win NT & 2000
Gap handling                                : Appended to previous track

Used output format              : User Defined Encoder
Selected bitrate                : lossless
Quality                         : High
Add ID3 tag                     : No
Command line compressor         : C:\Program Files\Exact Audio Copy\Flac\flac.exe
Additional command line options : -0 -T "artist=%a" -T "title=%t" -T "album=%g" -T "date=%y" -T "tracknumber=%n" -T "genre=%m" %s

TOC of the extracted CD

     Track |   Start  |  Length  | Start sector | End sector
    ---------------------------------------------------------
        1  |  0:00.00 |  4:51.59 |         0    |    21883   
        2  |  4:51.59 |  4:01.17 |     21884    |    39975   
        3  |  8:53.01 |  4:48.05 |     39976    |    61580   
        4  | 13:41.06 |  4:51.24 |     61581    |    83429   
        5  | 18:32.30 |  4:57.56 |     83430    |   105760   
        6  | 23:30.11 |  3:48.13 |    105761    |   122873   
        7  | 27:18.24 |  3:00.44 |    122874    |   136417   
        8  | 30:18.68 |  3:40.51 |    136418    |   152968   
        9  | 33:59.44 |  3:25.10 |    152969    |   168353   
       10  | 37:24.54 |  2:33.25 |    168354    |   179853   
       11  | 39:58.04 | 20:09.41 |    179854    |   270569   

Track  1

     Filename C:\Downloads\RIP\Dolphin - Звезда\01 – Sumerki.wav

     Pre-gap length  0:00:02.00

     Peak level 98.6 %
     Track quality 100.0 %
     Test CRC 3D2382A4
     Copy CRC 3D2382A4
     Copy OK

Track  2

     Filename C:\Downloads\RIP\Dolphin - Звезда\02 – Serebro.wav

     Peak level 99.8 %
     Track quality 100.0 %
     Test CRC 12EA4A1A
     Copy CRC 12EA4A1A
     Copy OK

Track  3

     Filename C:\Downloads\RIP\Dolphin - Звезда\03 – Chujoi.wav

     Pre-gap length  0:04:01.22

     Peak level 98.8 %
     Track quality 100.0 %
     Test CRC 72D1665D
     Copy CRC 72D1665D
     Copy OK

Track  4

     Filename C:\Downloads\RIP\Dolphin - Звезда\04 – Vesna.wav

     Pre-gap length  0:08:49.29

     Peak level 99.9 %
     Track quality 100.0 %
     Test CRC 45F28B4B
     Copy CRC 45F28B4B
     Copy OK

Track  5

     Filename C:\Downloads\RIP\Dolphin - Звезда\05 – Imya.wav

     Pre-gap length  0:13:40.61

     Peak level 100.0 %
     Track quality 100.0 %
     Test CRC 49F0411E
     Copy CRC 49F0411E
     Copy OK

Track  6

     Filename C:\Downloads\RIP\Dolphin - Звезда\06 – Romance.wav

     Pre-gap length  0:18:38.36

     Peak level 97.2 %
     Track quality 100.0 %
     Test CRC 83EF3152
     Copy CRC 83EF3152
     Copy OK

Track  7

     Filename C:\Downloads\RIP\Dolphin - Звезда\07 – Toska.wav

     Pre-gap length  0:22:26.53

     Peak level 97.7 %
     Track quality 100.0 %
     Test CRC 829FB92D
     Copy CRC 829FB92D
     Copy OK

Track  8

     Filename C:\Downloads\RIP\Dolphin - Звезда\08 – Oblaka.wav

     Pre-gap length  0:25:27.12

     Peak level 98.8 %
     Track quality 100.0 %
     Test CRC 5BB7B4ED
     Copy CRC 5BB7B4ED
     Copy OK

Track  9

     Filename C:\Downloads\RIP\Dolphin - Звезда\09 – Zvezda.wav

     Pre-gap length  0:29:07.80

     Peak level 97.7 %
     Track quality 100.0 %
     Test CRC 88D2DB71
     Copy CRC 88D2DB71
     Copy OK

Track 10

     Filename C:\Downloads\RIP\Dolphin - Звезда\10 – Cyberpunk.wav

     Pre-gap length  0:32:32.93

     Peak level 97.7 %
     Track quality 100.0 %
     Test CRC 09B5B1F6
     Copy CRC 09B5B1F6
     Copy OK

Track 11

     Filename C:\Downloads\RIP\Dolphin - Звезда\11 – MDMA + Glaza (Bonus Track).wav

     Pre-gap length  0:35:06.26

     Peak level 100.0 %
     Track quality 100.0 %
     Test CRC 865E44D1
     Copy CRC 865E44D1
     Copy OK

No errors occurred

End of status report

Код:

REM GENRE Alternative
REM DATE 2004
REM DISCID 6A0E170B
REM COMMENT "ExactAudioCopy v0.99pb4"
PERFORMER "Dolphin"
TITLE "Zvezda"
FILE "01 – Sumerki.wav" WAVE
  TRACK 01 AUDIO
    TITLE "Sumerki"
    PERFORMER "Dolphin"
    INDEX 01 00:00:00
FILE "02 – Serebro.wav" WAVE
  TRACK 02 AUDIO
    TITLE "Serebro"
    PERFORMER "Dolphin"
    INDEX 01 00:00:00
  TRACK 03 AUDIO
    TITLE "Chujoi"
    PERFORMER "Dolphin"
    INDEX 00 00:00:00
FILE "03 – Chujoi.wav" WAVE
    INDEX 01 00:00:00
  TRACK 04 AUDIO
    TITLE "Vesna"
    PERFORMER "Dolphin"
    INDEX 00 06:59:58
FILE "04 – Vesna.wav" WAVE
    INDEX 01 00:00:00
  TRACK 05 AUDIO
    TITLE "Imya"
    PERFORMER "Dolphin"
    INDEX 00 02:11:53
FILE "05 – Imya.wav" WAVE
    INDEX 01 00:00:00
  TRACK 06 AUDIO
    TITLE "Romance"
    PERFORMER "Dolphin"
    INDEX 00 97:20:29
FILE "06 – Romance.wav" WAVE
    INDEX 01 00:00:00
  TRACK 07 AUDIO
    TITLE "Toska"
    PERFORMER "Dolphin"
    INDEX 00 92:22:48
FILE "07 – Toska.wav" WAVE
    INDEX 01 00:00:00
  TRACK 08 AUDIO
    TITLE "Oblaka"
    PERFORMER "Dolphin"
    INDEX 00 88:34:35
FILE "08 – Oblaka.wav" WAVE
    INDEX 01 00:00:00
  TRACK 09 AUDIO
    TITLE "Zvezda"
    PERFORMER "Dolphin"
    INDEX 00 85:33:66
FILE "09 – Zvezda.wav" WAVE
    INDEX 01 00:00:00
  TRACK 10 AUDIO
    TITLE "Cyberpunk"
    PERFORMER "Dolphin"
    INDEX 00 81:53:15
FILE "10 – Cyberpunk.wav" WAVE
    INDEX 01 00:00:00
  TRACK 11 AUDIO
    TITLE "MDMA + Glaza (Bonus Track)"
    PERFORMER "Dolphin"
    INDEX 00 78:28:05
FILE "11 – MDMA + Glaza (Bonus Track).wav" WAVE
    INDEX 01 00:00:00

Этот торрент недоступен для скачивания без регистрации, однако доступен по публичной magnet-ссылке (источники с публичных трекеров). Перед использованием ссылки прочтите, пожалуйста Пользовательское соглашение, а также как можно дольше оставайтесь на раздаче! Для того, чтобы скачать сам торрент-файл (который видит больше источников), а также для того, чтобы поблагодарить релизера, вам необходимо зарегистрироваться. Если регистрироваться лень - вы можете также попробовать скачать релиз по нашим партнерским ссылкам ниже. Кроме того, зарегистрированным пользователям не показывается всплывающая реклама при скачивании.

[underverse.me].t96453.torrent
Трекер: Зарегистрирован   [ 15.02.2018 09:02 ]  

Статус: проверено (by Бишеп at 15.02.2018 09:02)
Поблагодарили: пока никто не поблагодарил...
Тип торрента: публичный - доступные источники с открытых трекеров: 
Размер: 365 MB (занимает 0,08 DVDR, для записи нужно 1 болванка DVDR/RW)
 
 
Похожие темы
Форум Тема Автор Торрент Отв. Посл. сооб.
Зарубежная Pop Музыка (Alternative Pop, Neo Soul, Indie) Amanda Jenssen - Sanger fran on (2015) [MP3, 320 kbps] 90ytr90
0 | 1

0 | 1173

3

23.03.2015 19:02

Зарубежная Pop Музыка (Alternative, Indie) Anna of the North - Lovers (2017) [MP3, 320 kbps CBR] Darkferse
5 | 0

0 | 827

4

13.09.2017 08:47

Зарубежная Pop Музыка (Alternative, Pop, Soul) Plan B - Heaven Before All Hell Breaks Loose (2018) [MP3, 320 kbps CBR] 90ytr90
23 | 0

0 | 286

3

03.06.2018 05:52

Зарубежный Hard, Progressive, Soft, Melodic, AOR, Folk, Classic Rock (Alternative Rock / Progressive Rock) Muse - The 2nd Law (2012) [MP3, 320 kbps] Jimmy
0 | 0

0 | 1392

13

27.09.2012 04:30

Зарубежный Black, Death, Heavy, Thrash, Power, Folk, Gothic Metal (Alternative Metal) This Tragic Day - This Tragic Day (2012) [MP3, 320 kbps] NiiggazCPT
1 | 0

0 | 1565

4

28.10.2012 07:21

Зарубежный Punk, Hardcore, Grunge, Alternative (Alternative) Green Day - Greatest Hits: God's Favorite Band (2017) [iTunes AAC M4A, 256 kbps VBR] Web garry
2 | 0

5 | 3909

1

04.02.2010 17:52

Зарубежный Punk, Hardcore, Grunge, Alternative (Alternative) Red Hot Chili Peppers - Greatest Hits (2003) [iTunes AAC M4A, 256 kbps VBR] Web garry
2 | 0

0 | 2172

2

02.06.2009 18:51

Зарубежный Punk, Hardcore, Grunge, Alternative (Alternative) The Killers - Discography (2004-2013) [iTunes AAC M4A, 256 kbps VBR] Web garry
11 | 7

0 | 6268

4

20.06.2009 12:07

Зарубежный Punk, Hardcore, Grunge, Alternative (Alternative, Pop-Punk, Female Vocal) We Are the In Crowd - Weird Kids [Deluxe Edition] (2014) [MP3, 320 kbps] Jimmy
3 | 0

0 | 1215

3

23.04.2014 15:58

Зарубежный Punk, Hardcore, Grunge, Alternative (Alternative, Pop Punk, Emo) Fireworks - (Oh), Common Life (2014) [MP3, 320 kbps] Jimmy
1 | 0

0 | 1011

4

23.04.2014 15:55


Яндекс.Метрика powered by Sphinx


В Н И М А Н И Е
Сайт не распространяет и не хранит электронные версии произведений, а лишь бесплатно и без коммерческой выгоды (не требуя взамен платы,
SMS и т.д.) предоставляет доступ к создаваемому пользователями каталогу ссылок на торрент-файлы, которые содержат только списки хеш-сумм.
Убедительная просьба с жалобами обращаться напрямую к пользователю, разместившему торрент файл.

Вверх