Loading...
Error

(Punk Rock) Король и Шут - Собрание (Deluxe Edition) (2001) [FLAC (Image+.Cue), Lossless]

Статистика раздачи
Размер:  684 MB   |    Зарегистрирован:  6 месяцев   |    Скачан:  6 раз

Полного источника не было: 15 часов

Сидов:  0  |  0 KB/s  ]   Личеров:  0  |  0 KB/s  ]

* - сиды/пиры с внешних источников

   
 
Автор Сообщение

Бишеп Пол:Муж

15-Фев-2018 09:20

Король и Шут - Собрание

Жанр: Punk Rock
Год выпуска: 2001
Источник: CD
Производитель диска: Мистерия Звука - MZ-022-2, MZ-030-9
Аудиокодек: FLAC
Тип рипа: Image+.CUE
Битрейт аудио: lossless
Продолжительность: 01:19:52


Треклист:
01. Камнем по голове (02:35)
02. Два вора и монета (02:13)
03. Сапоги мертвеца (02:27)
04. Садовник (03:42)
05. Два друга и разбойники (02:12)
06. Дурак и молния (01:53)
07. Охотник (02:33)
08. Песня мушкетеров (03:47)
09. Тяни (02:54)
10. Мотоцикл (02:51)
11. Смельчак и ветер (02:58)
12. Кукла колдуна (03:22)
13. Невеста палача (04:23)
14. От женщин кругом голова (01:31)
15. Любовь и пропеллер (02:35)
16. Наблюдатель (04:43)
17. Валет и Дама (03:09)
18. Ведьма и Осел (02:56)
19. Отец и маски (03:01)
20. Лесник (03:08)
21. Забытые ботинки (02:47)
22. Король и шут (02:38)
23. Прыгну со скалы (03:13)
24. Собрание (04:03)
25. Ели мясо мужики (02:14)
26. Рыбак (01:41)
27. Молотов (04:24)

Код:

Exact Audio Copy V1.0 beta 3 from 29. August 2011

EAC extraction logfile from 26. December 2012, 17:39

Король и Шут / Собрание

Used drive  : Optiarc DVD RW AD-7241S   Adapter: 1  ID: 2

Read mode               : Secure
Utilize accurate stream : Yes
Defeat audio cache      : Yes
Make use of C2 pointers : No

Read offset correction                      : 48
Overread into Lead-In and Lead-Out          : No
Fill up missing offset samples with silence : Yes
Delete leading and trailing silent blocks   : No
Null samples used in CRC calculations       : Yes
Used interface                              : Installed external ASPI interface

Used output format              : User Defined Encoder
Selected bitrate                : 128 kBit/s
Quality                         : High
Add ID3 tag                     : No
Command line compressor         : C:\Program Files (x86)\Exact Audio Copy\Flac\flac.exe
Additional command line options : -V -8 -T "Date=%year%" -T "Genre=%genre%" %source%

TOC of the extracted CD

     Track |   Start  |  Length  | Start sector | End sector
    ---------------------------------------------------------
        1  |  0:00.00 |  2:35.04 |         0    |    11628   
        2  |  2:35.04 |  2:13.12 |     11629    |    21615   
        3  |  4:48.16 |  2:26.45 |     21616    |    32610   
        4  |  7:14.61 |  3:42.03 |     32611    |    49263   
        5  | 10:56.64 |  2:11.38 |     49264    |    59126   
        6  | 13:08.27 |  1:52.74 |     59127    |    67600   
        7  | 15:01.26 |  2:32.46 |     67601    |    79046   
        8  | 17:33.72 |  3:47.34 |     79047    |    96105   
        9  | 21:21.31 |  2:53.66 |     96106    |   109146   
       10  | 24:15.22 |  2:50.38 |    109147    |   121934   
       11  | 27:05.60 |  2:58.02 |    121935    |   135286   
       12  | 30:03.62 |  3:22.03 |    135287    |   150439   
       13  | 33:25.65 |  4:22.38 |    150440    |   170127   
       14  | 37:48.28 |  1:30.45 |    170128    |   176922   
       15  | 39:18.73 |  2:35.34 |    176923    |   188581   
       16  | 41:54.32 |  4:42.44 |    188582    |   209775   
       17  | 46:37.01 |  3:08.68 |    209776    |   223943   
       18  | 49:45.69 |  2:55.54 |    223944    |   237122   
       19  | 52:41.48 |  3:00.38 |    237123    |   250660   
       20  | 55:42.11 |  3:08.32 |    250661    |   264792   
       21  | 58:50.43 |  2:46.38 |    264793    |   277280   
       22  | 61:37.06 |  2:38.22 |    277281    |   289152   
       23  | 64:15.28 |  3:13.24 |    289153    |   303651   
       24  | 67:28.52 |  4:03.22 |    303652    |   321898   
       25  | 71:31.74 |  2:14.33 |    321899    |   331981   
       26  | 73:46.32 |  1:41.26 |    331982    |   339582   
       27  | 75:27.58 |  4:24.22 |    339583    |   359404   

Range status and errors

Selected range

     Filename D:\Король и Шут\[2001] - Собрание\Король и Шут - Собрание.wav

     Peak level 100.0 %
     Extraction speed 4.5 X
     Range quality 99.9 %
     Test CRC 59FD6F34
     Copy CRC 59FD6F34
     Copy OK

No errors occurred

 
AccurateRip summary
 
Track  1  not present in database
Track  2  not present in database
Track  3  not present in database
Track  4  not present in database
Track  5  not present in database
Track  6  not present in database
Track  7  not present in database
Track  8  not present in database
Track  9  not present in database
Track 10  not present in database
Track 11  not present in database
Track 12  not present in database
Track 13  not present in database
Track 14  not present in database
Track 15  not present in database
Track 16  not present in database
Track 17  not present in database
Track 18  not present in database
Track 19  not present in database
Track 20  not present in database
Track 21  not present in database
Track 22  not present in database
Track 23  not present in database
Track 24  not present in database
Track 25  not present in database
Track 26  not present in database
Track 27  not present in database
 
None of the tracks are present in the AccurateRip database

End of status report

---- CUETools DB Plugin V2.1.4

[CTDB TOCID: NsCxRo_k75XRBdSc7FzMk0zqNJs-] found
Submit result: already submitted
Track | CTDB Status
  1   | (1/1) Accurately ripped
  2   | (1/1) Accurately ripped
  3   | (1/1) Accurately ripped
  4   | (1/1) Accurately ripped
  5   | (1/1) Accurately ripped
  6   | (1/1) Accurately ripped
  7   | (1/1) Accurately ripped
  8   | (1/1) Accurately ripped
  9   | (1/1) Accurately ripped
 10   | (1/1) Accurately ripped
 11   | (1/1) Accurately ripped
 12   | (1/1) Accurately ripped
 13   | (1/1) Accurately ripped
 14   | (1/1) Accurately ripped
 15   | (1/1) Accurately ripped
 16   | (1/1) Accurately ripped
 17   | (1/1) Accurately ripped
 18   | (1/1) Accurately ripped
 19   | (1/1) Accurately ripped
 20   | (1/1) Accurately ripped
 21   | (1/1) Accurately ripped
 22   | (1/1) Accurately ripped
 23   | (1/1) Accurately ripped
 24   | (1/1) Accurately ripped
 25   | (1/1) Accurately ripped
 26   | (1/1) Accurately ripped
 27   | (1/1) Accurately ripped

==== Log checksum AA363E4D75A71A94298CCA728ABF0B18D4633103FA097E7E4DA692A4CC8A6C7D ====

Код:

REM GENRE "Punk Rock"
REM DATE 2001
REM DISCID 9C12B81B
REM COMMENT "ExactAudioCopy v1.0b3"
PERFORMER "Король и Шут"
TITLE "Собрание"
FILE "Король и Шут - Собрание.flac" WAVE
  TRACK 01 AUDIO
    TITLE "Камнем по голове"
    PERFORMER "Король и Шут"
    INDEX 01 00:00:00
  TRACK 02 AUDIO
    TITLE "Два вора и монета"
    PERFORMER "Король и Шут"
    INDEX 01 02:35:04
  TRACK 03 AUDIO
    TITLE "Сапоги мертвеца"
    PERFORMER "Король и Шут"
    INDEX 01 04:48:16
  TRACK 04 AUDIO
    TITLE "Садовник"
    PERFORMER "Король и Шут"
    INDEX 01 07:14:61
  TRACK 05 AUDIO
    TITLE "Два друга и разбойники"
    PERFORMER "Король и Шут"
    INDEX 01 10:56:64
  TRACK 06 AUDIO
    TITLE "Дурак и молния"
    PERFORMER "Король и Шут"
    INDEX 01 13:08:27
  TRACK 07 AUDIO
    TITLE "Охотник"
    PERFORMER "Король и Шут"
    INDEX 01 15:01:26
  TRACK 08 AUDIO
    TITLE "Песня мушкетеров"
    PERFORMER "Король и Шут"
    INDEX 01 17:33:72
  TRACK 09 AUDIO
    TITLE "Тяни"
    PERFORMER "Король и Шут"
    INDEX 01 21:21:31
  TRACK 10 AUDIO
    TITLE "Мотоцикл"
    PERFORMER "Король и Шут"
    INDEX 01 24:15:22
  TRACK 11 AUDIO
    TITLE "Смельчак и ветер"
    PERFORMER "Король и Шут"
    INDEX 01 27:05:60
  TRACK 12 AUDIO
    TITLE "Кукла колдуна"
    PERFORMER "Король и Шут"
    INDEX 01 30:03:62
  TRACK 13 AUDIO
    TITLE "Невеста палача"
    PERFORMER "Король и Шут"
    INDEX 01 33:25:65
  TRACK 14 AUDIO
    TITLE "От женщин кругом голова"
    PERFORMER "Король и Шут"
    INDEX 01 37:48:28
  TRACK 15 AUDIO
    TITLE "Любовь и пропеллер"
    PERFORMER "Король и Шут"
    INDEX 01 39:18:73
  TRACK 16 AUDIO
    TITLE "Наблюдатель"
    PERFORMER "Король и Шут"
    INDEX 01 41:54:32
  TRACK 17 AUDIO
    TITLE "Валет и Дама"
    PERFORMER "Король и Шут"
    INDEX 01 46:37:01
  TRACK 18 AUDIO
    TITLE "Ведьма и Осел"
    PERFORMER "Король и Шут"
    INDEX 01 49:45:69
  TRACK 19 AUDIO
    TITLE "Отец и маски"
    PERFORMER "Король и Шут"
    INDEX 01 52:41:48
  TRACK 20 AUDIO
    TITLE "Лесник"
    PERFORMER "Король и Шут"
    INDEX 01 55:42:11
  TRACK 21 AUDIO
    TITLE "Забытые ботинки"
    PERFORMER "Король и Шут"
    INDEX 01 58:50:43
  TRACK 22 AUDIO
    TITLE "Король и шут"
    PERFORMER "Король и Шут"
    INDEX 01 61:37:06
  TRACK 23 AUDIO
    TITLE "Прыгну со скалы"
    PERFORMER "Король и Шут"
    INDEX 01 64:15:28
  TRACK 24 AUDIO
    TITLE "Собрание"
    PERFORMER "Король и Шут"
    INDEX 01 67:28:52
  TRACK 25 AUDIO
    TITLE "Ели мясо мужики"
    PERFORMER "Король и Шут"
    INDEX 01 71:31:74
  TRACK 26 AUDIO
    TITLE "Рыбак"
    PERFORMER "Король и Шут"
    INDEX 01 73:46:32
  TRACK 27 AUDIO
    TITLE "Молотов"
    PERFORMER "Король и Шут"
    INDEX 01 75:27:58

Discogs

Этот торрент недоступен для скачивания без регистрации, однако доступен по публичной magnet-ссылке (источники с публичных трекеров). Перед использованием ссылки прочтите, пожалуйста Пользовательское соглашение, а также как можно дольше оставайтесь на раздаче! Для того, чтобы скачать сам торрент-файл (который видит больше источников), а также для того, чтобы поблагодарить релизера, вам необходимо зарегистрироваться. Если регистрироваться лень - вы можете также попробовать скачать релиз по нашим партнерским ссылкам ниже. Кроме того, зарегистрированным пользователям не показывается всплывающая реклама при скачивании.

[underverse.me].t96464.torrent
Трекер: Зарегистрирован   [ 15.02.2018 09:20 ]  

Статус: проверено (by Бишеп at 15.02.2018 09:20)
Поблагодарили: пока никто не поблагодарил...
Тип торрента: публичный - доступные источники с открытых трекеров: 
Размер: 684 MB (занимает 0,15 DVDR, для записи нужно 1 болванка DVDR/RW)
 
 
Похожие темы
Форум Тема Автор Торрент Отв. Посл. сооб.
Зарубежный Punk, Hardcore, Grunge, Alternative (Punk Rock/Street Punk) BRDigung - In Goldenen Ketten (2014) [MP3, 320 kbps] Jimmy
1 | 0

0 | 1098

4

23.04.2014 16:00

Зарубежный Punk, Hardcore, Grunge, Alternative (Punk Rock/Heavy Punk) Desakato - Buen Viaje (2014) [MP3, 320 kbps] Jimmy
1 | 0

0 | 817

5

23.04.2014 15:53

Зарубежный Punk, Hardcore, Grunge, Alternative (Punk Rock) Richie Ramone - Entitled [ex-Ramones] (2013) [MP3, 320 kbps] Jimmy
2 | 0

0 | 2068

2

21.12.2013 08:03

Зарубежный Punk, Hardcore, Grunge, Alternative (Punk Rock/Old School Pop Punk) The Bugs - 2 альбома (The Bugs/Missile To The Middle East) (2008/2013) [MP3, 320 kbps] Jimmy
0 | 0

0 | 2155

0

21.12.2013 08:06

Зарубежный Punk, Hardcore, Grunge, Alternative (Punk Rock) The So So Glos - Blowout (2013) [MP3, 320 kbps] Jimmy
1 | 0

0 | 1852

1

04.01.2014 10:17

Зарубежный Punk, Hardcore, Grunge, Alternative (Punk Rock | Melodic Hardcore) Noopinion - No Chains For Change (2013) [MP3, 320 kbps] Jimmy
1 | 0

0 | 1800

2

04.01.2014 14:20

Зарубежный Punk, Hardcore, Grunge, Alternative (Punk Rock) Stiff Little Fingers - No Going Back (2014) [MP3, 320 kbps] Jimmy
0 | 7

0 | 1778

5

23.03.2014 05:20

Зарубежный Punk, Hardcore, Grunge, Alternative (Punk Rock, Skate Punk, Melodic Punk) Authority Zero - Broadcasting To The Nations (2017) [MP3, 320 kbps CBR] Darkferse
10 | 0

0 | 860

2

02.06.2017 15:14

Зарубежный Punk, Hardcore, Grunge, Alternative (Punk Rock, Reggae) Anti-Nowhere League - League Style (Loosen Up Volume 1) (2017) [MP3, 320 kbps CBR] Darkferse
2 | 0

0 | 477

1

05.06.2017 23:58

Зарубежный Punk, Hardcore, Grunge, Alternative (Punk Rock) Beatsteaks - YOURS (2017) [MP3, 320 kbps CBR] Darkferse
2 | 0

0 | 529

1

06.09.2017 10:18


Яндекс.Метрика powered by Sphinx


В Н И М А Н И Е
Сайт не распространяет и не хранит электронные версии произведений, а лишь бесплатно и без коммерческой выгоды (не требуя взамен платы,
SMS и т.д.) предоставляет доступ к создаваемому пользователями каталогу ссылок на торрент-файлы, которые содержат только списки хеш-сумм.
Убедительная просьба с жалобами обращаться напрямую к пользователю, разместившему торрент файл.

Вверх