Loading...
Error

(Punk Rock) Король и Шут - Герои и Злодеи (Deluxe Edition) (2000) [FLAC (Image+.Cue), Lossless]

Статистика раздачи
Размер:  365 MB   |    Зарегистрирован:  10 месяцев   |    Скачан:  5 раз

Полного источника не было: 1 месяц 21 день

Сидов:  0  |  0 KB/s  ]   Личеров:  0  |  0 KB/s  ]

* - сиды/пиры с внешних источников

   
 
Автор Сообщение

Бишеп Пол:Муж

16-Фев-2018 16:20

Король и Шут - Герои и Злодеи

Жанр: Punk Rock
Год выпуска: 2000
Источник: CD
Производитель диска: Столица-Продакшн - SPR-001
Аудиокодек: FLAC
Тип рипа: Image+.CUE
Битрейт аудио: lossless
Продолжительность: 00:51:41


Треклист:
01. Дед на свадьбе (04:47)
02. Запрет отца (03:31)
03. Кузнец (03:00)
04. Разговор с гоблином (02:32)
05. Вор, граф и графиня (02:56)
06. Что видел малыш (03:27)
07. Невеста палача (04:23)
08. Мастер приглашает в гости (03:15)
09. Бродяга и старик (04:09)
10. Смерть халдея (03:40)
11. Помнят с горечью древляне (03:57)
12. Про Ивана (02:37)
13. Воспоминания о былой любви (02:59)
Бонус-треки:
14. Садовник (03:04)
15. Паника в селе (03:26)

Код:

Exact Audio Copy V1.0 beta 3 from 29. August 2011

EAC extraction logfile from 14. January 2013, 19:57

Король и Шут / Герои и Злодеи

Used drive  : Optiarc DVD RW AD-7241S   Adapter: 1  ID: 2

Read mode               : Secure
Utilize accurate stream : Yes
Defeat audio cache      : Yes
Make use of C2 pointers : No

Read offset correction                      : 48
Overread into Lead-In and Lead-Out          : No
Fill up missing offset samples with silence : Yes
Delete leading and trailing silent blocks   : No
Null samples used in CRC calculations       : Yes
Used interface                              : Installed external ASPI interface

Used output format              : User Defined Encoder
Selected bitrate                : 1024 kBit/s
Quality                         : High
Add ID3 tag                     : No
Command line compressor         : C:\Program Files (x86)\Exact Audio Copy\Flac\flac.exe
Additional command line options : -V -8 -T "Date=%year%" -T "Genre=%genre%" %source%

TOC of the extracted CD

     Track |   Start  |  Length  | Start sector | End sector
    ---------------------------------------------------------
        1  |  0:00.01 |  4:46.41 |         1    |    21491   
        2  |  4:46.42 |  3:31.35 |     21492    |    37351   
        3  |  8:18.02 |  2:59.52 |     37352    |    50828   
        4  | 11:17.54 |  2:32.12 |     50829    |    62240   
        5  | 13:49.66 |  2:55.44 |     62241    |    75409   
        6  | 16:45.35 |  3:27.25 |     75410    |    90959   
        7  | 20:12.60 |  4:22.38 |     90960    |   110647   
        8  | 24:35.23 |  3:15.12 |    110648    |   125284   
        9  | 27:50.35 |  4:08.46 |    125285    |   143930   
       10  | 31:59.06 |  3:39.69 |    143931    |   160424   
       11  | 35:39.00 |  3:56.65 |    160425    |   178189   
       12  | 39:35.65 |  2:37.03 |    178190    |   189967   
       13  | 42:12.68 |  2:58.40 |    189968    |   203357   
       14  | 45:11.33 |  3:03.42 |    203358    |   217124   
       15  | 48:15.00 |  3:26.04 |    217125    |   232578   

Range status and errors

Selected range

     Filename D:\Король и Шут\[2000] - Герои и Злодеи\Король и Шут - Герои и Злодеи.wav

     Peak level 100.0 %
     Extraction speed 3.8 X
     Range quality 100.0 %
     Test CRC C70BE460
     Copy CRC C70BE460
     Copy OK

No errors occurred

 
AccurateRip summary
 
Track  1  accurately ripped (confidence 1)  [D0DC6BB7]  (AR v1)
Track  2  accurately ripped (confidence 1)  [36F9B864]  (AR v1)
Track  3  accurately ripped (confidence 1)  [DA4DC388]  (AR v1)
Track  4  accurately ripped (confidence 1)  [C8A518F5]  (AR v1)
Track  5  accurately ripped (confidence 1)  [CF602505]  (AR v1)
Track  6  accurately ripped (confidence 1)  [3753923E]  (AR v1)
Track  7  accurately ripped (confidence 1)  [5F06EFCE]  (AR v1)
Track  8  accurately ripped (confidence 1)  [21711DBA]  (AR v1)
Track  9  accurately ripped (confidence 1)  [C77AD3EC]  (AR v1)
Track 10  accurately ripped (confidence 1)  [EF90AD8B]  (AR v1)
Track 11  accurately ripped (confidence 1)  [7B33FC31]  (AR v1)
Track 12  accurately ripped (confidence 1)  [1018CCA0]  (AR v1)
Track 13  accurately ripped (confidence 1)  [19EA0D28]  (AR v1)
Track 14  accurately ripped (confidence 1)  [79AF83A9]  (AR v1)
Track 15  accurately ripped (confidence 1)  [7B763429]  (AR v1)
 
All tracks accurately ripped

End of status report

---- CUETools DB Plugin V2.1.4

[CTDB TOCID: M6je1q0WJIrOg9mY3XgmcUS3snw-] found
Submit result: already submitted
Track | CTDB Status
  1   | (1/1) Accurately ripped
  2   | (1/1) Accurately ripped
  3   | (1/1) Accurately ripped
  4   | (1/1) Accurately ripped
  5   | (1/1) Accurately ripped
  6   | (1/1) Accurately ripped
  7   | (1/1) Accurately ripped
  8   | (1/1) Accurately ripped
  9   | (1/1) Accurately ripped
 10   | (1/1) Accurately ripped
 11   | (1/1) Accurately ripped
 12   | (1/1) Accurately ripped
 13   | (1/1) Accurately ripped
 14   | (1/1) Accurately ripped
 15   | (1/1) Accurately ripped

==== Log checksum 7600565A3844049653C6012F5095C4F70D2BFBD88F314FE05C2BFBF39B50CC59 ====

Код:

REM GENRE "Punk Rock"
REM DATE 2000
REM DISCID CB0C1D0F
REM COMMENT "ExactAudioCopy v1.0b3"
PERFORMER "Король и Шут"
TITLE "Герои и Злодеи"
FILE "Король и Шут - Герои и Злодеи.flac" WAVE
  TRACK 01 AUDIO
    TITLE "Дед на свадьбе"
    PERFORMER "Король и Шут"
    INDEX 00 00:00:00
    INDEX 01 00:00:01
  TRACK 02 AUDIO
    TITLE "Запрет отца"
    PERFORMER "Король и Шут"
    INDEX 01 04:46:42
  TRACK 03 AUDIO
    TITLE "Кузнец"
    PERFORMER "Король и Шут"
    INDEX 01 08:18:02
  TRACK 04 AUDIO
    TITLE "Разговор с гоблином"
    PERFORMER "Король и Шут"
    INDEX 01 11:17:54
  TRACK 05 AUDIO
    TITLE "Вор, граф и графиня"
    PERFORMER "Король и Шут"
    INDEX 01 13:49:66
  TRACK 06 AUDIO
    TITLE "Что видел малыш"
    PERFORMER "Король и Шут"
    INDEX 01 16:45:35
  TRACK 07 AUDIO
    TITLE "Невеста палача"
    PERFORMER "Король и Шут"
    INDEX 01 20:12:60
  TRACK 08 AUDIO
    TITLE "Мастер приглашает в гости"
    PERFORMER "Король и Шут"
    INDEX 01 24:35:23
  TRACK 09 AUDIO
    TITLE "Бродяга и старик"
    PERFORMER "Король и Шут"
    INDEX 01 27:50:35
  TRACK 10 AUDIO
    TITLE "Смерть халдея"
    PERFORMER "Король и Шут"
    INDEX 01 31:59:06
  TRACK 11 AUDIO
    TITLE "Помнят с горечью древляне"
    PERFORMER "Король и Шут"
    INDEX 01 35:39:00
  TRACK 12 AUDIO
    TITLE "Про Ивана"
    PERFORMER "Король и Шут"
    INDEX 01 39:35:65
  TRACK 13 AUDIO
    TITLE "Воспоминания о былой любви"
    PERFORMER "Король и Шут"
    INDEX 01 42:12:68
  TRACK 14 AUDIO
    TITLE "Разбойники (бонус-трек)"
    PERFORMER "Король и Шут"
    INDEX 01 45:11:33
  TRACK 15 AUDIO
    TITLE "Паника в селе (бонус-трек)"
    PERFORMER "Король и Шут"
    INDEX 01 48:15:00

Discogs

Этот торрент недоступен для скачивания без регистрации, однако доступен по публичной magnet-ссылке (источники с публичных трекеров). Перед использованием ссылки прочтите, пожалуйста Пользовательское соглашение, а также как можно дольше оставайтесь на раздаче! Для того, чтобы скачать сам торрент-файл (который видит больше источников), а также для того, чтобы поблагодарить релизера, вам необходимо зарегистрироваться. Если регистрироваться лень - вы можете также попробовать скачать релиз по нашим партнерским ссылкам ниже. Кроме того, зарегистрированным пользователям не показывается всплывающая реклама при скачивании.

[underverse.me].t96666.torrent
Трекер: Зарегистрирован   [ 16.02.2018 16:20 ]  

Статус: проверено (by Бишеп at 16.02.2018 16:20)
Поблагодарили: пока никто не поблагодарил...
Тип торрента: публичный - доступные источники с открытых трекеров: 
Размер: 365 MB (занимает 0,08 DVDR, для записи нужно 1 болванка DVDR/RW)
 
 
Похожие темы
Форум Тема Автор Торрент Отв. Посл. сооб.
Зарубежный Hard, Progressive, Soft, Melodic, AOR, Folk, Classic Rock (Punk Rock, Hard Rock) The Senton Bombs - Outsiders (2018) [MP3, 320 kbps CBR] 90ytr90
1 | 0

0 | 73

2

10.11.2018 15:04

Зарубежный Punk, Hardcore, Grunge, Alternative (Punk Rock/Street Punk) BRDigung - In Goldenen Ketten (2014) [MP3, 320 kbps] Jimmy
1 | 0

0 | 1208

5

23.04.2014 16:00

Зарубежный Punk, Hardcore, Grunge, Alternative (Punk Rock/Heavy Punk) Desakato - Buen Viaje (2014) [MP3, 320 kbps] Jimmy
1 | 0

0 | 909

5

23.04.2014 15:53

Зарубежный Punk, Hardcore, Grunge, Alternative (Punk Rock) Richie Ramone - Entitled [ex-Ramones] (2013) [MP3, 320 kbps] Jimmy
2 | 0

0 | 2243

2

21.12.2013 08:03

Зарубежный Punk, Hardcore, Grunge, Alternative (Punk Rock/Old School Pop Punk) The Bugs - 2 альбома (The Bugs/Missile To The Middle East) (2008/2013) [MP3, 320 kbps] Jimmy
1 | 0

0 | 2260

0

21.12.2013 08:06

Зарубежный Punk, Hardcore, Grunge, Alternative (Punk Rock) The So So Glos - Blowout (2013) [MP3, 320 kbps] Jimmy
1 | 0

0 | 1960

1

04.01.2014 10:17

Зарубежный Punk, Hardcore, Grunge, Alternative (Punk Rock) Stiff Little Fingers - No Going Back (2014) [MP3, 320 kbps] Jimmy
2 | 5

0 | 1910

5

23.03.2014 05:20

Зарубежный Punk, Hardcore, Grunge, Alternative (Punk Rock, Skate Punk, Melodic Punk) Authority Zero - Broadcasting To The Nations (2017) [MP3, 320 kbps CBR] Darkferse
13 | 0

0 | 1031

2

02.06.2017 15:14

Зарубежный Punk, Hardcore, Grunge, Alternative (Punk Rock, Reggae) Anti-Nowhere League - League Style (Loosen Up Volume 1) (2017) [MP3, 320 kbps CBR] Darkferse
2 | 0

0 | 601

1

05.06.2017 23:58

Зарубежный Punk, Hardcore, Grunge, Alternative (Punk Rock) Beatsteaks - YOURS (2017) [MP3, 320 kbps CBR] Darkferse
1 | 0

0 | 688

1

06.09.2017 10:18


Яндекс.Метрика powered by Sphinx


В Н И М А Н И Е
Сайт не распространяет и не хранит электронные версии произведений, а лишь бесплатно и без коммерческой выгоды (не требуя взамен платы,
SMS и т.д.) предоставляет доступ к создаваемому пользователями каталогу ссылок на торрент-файлы, которые содержат только списки хеш-сумм.
Убедительная просьба с жалобами обращаться напрямую к пользователю, разместившему торрент файл.

Вверх