Loading...
Error

(Alternative Rock, Experimental) Дельфин - Существо (2014) [FLAC (Tracks+.Cue), Lossless]

Статистика раздачи
Размер:  377 MB   |    Зарегистрирован:  7 месяцев   |    Скачан:  4 раза

Полного источника не было: 7 дней

Сидов:  0  |  0 KB/s  ]   Личеров:  0  |  0 KB/s  ]

* - сиды/пиры с внешних источников

   
 
Автор Сообщение

Бишеп Пол:Муж

16-Фев-2018 16:36

Дельфин - Существо

Жанр: Alternative Rock, Experimental
Год выпуска: 2014
Источник: CD
Производитель диска: Мистерия Звука - CD-M+329-9
Аудиокодек: FLAC
Тип рипа: Tracks+.CUE
Битрейт аудио: lossless
Продолжительность: 01:03:29


Треклист:
01. Начало
02. Ждут
03. Темно
04. Снеговик
05. Sunset
06. Прощай
07. Васильки
08. Не было
09. 6:30 am
10. Частицы
11. Надо
12. 1
13. QT
14. Всё

Код:

Exact Audio Copy V0.99 prebeta 5 from 4. May 2009

EAC extraction logfile from 19. January 2015, 19:32

Дельфин / Существо

Used drive  : TSSTcorpBDDVDW SE-506BB   Adapter: 1  ID: 0

Read mode               : Secure
Utilize accurate stream : Yes
Defeat audio cache      : Yes
Make use of C2 pointers : No

Read offset correction                      : 6
Overread into Lead-In and Lead-Out          : No
Fill up missing offset samples with silence : Yes
Delete leading and trailing silent blocks   : No
Null samples used in CRC calculations       : Yes
Used interface                              : Native Win32 interface for Win NT & 2000
Gap handling                                : Appended to previous track

Used output format              : User Defined Encoder
Selected bitrate                : 128 kBit/s
Quality                         : High
Add ID3 tag                     : No
Command line compressor         : C:\Program Files (x86)\Exact Audio Copy\Flac\flac.exe
Additional command line options : -8 -V -T "ARTIST=%a" -T "TITLE=%t" -T "ALBUM=%g" -T "DATE=%y" -T "TRACKNUMBER=%n" -T "GENRE=%m" -T "COMMENT=EAC FLAC -8" %s

TOC of the extracted CD

     Track |   Start  |  Length  | Start sector | End sector
    ---------------------------------------------------------
        1  |  0:00.00 |  4:40.46 |         0    |    21045   
        2  |  4:40.46 |  3:49.37 |     21046    |    38257   
        3  |  8:30.08 |  5:53.67 |     38258    |    64799   
        4  | 14:24.00 |  4:11.46 |     64800    |    83670   
        5  | 18:35.46 |  5:07.23 |     83671    |   106718   
        6  | 23:42.69 |  3:59.54 |    106719    |   124697   
        7  | 27:42.48 |  4:08.61 |    124698    |   143358   
        8  | 31:51.34 |  3:41.37 |    143359    |   159970   
        9  | 35:32.71 |  3:43.26 |    159971    |   176721   
       10  | 39:16.22 |  4:55.00 |    176722    |   198846   
       11  | 44:11.22 |  4:01.00 |    198847    |   216921   
       12  | 48:12.22 |  4:24.37 |    216922    |   236758   
       13  | 52:36.59 |  4:57.34 |    236759    |   259067   
       14  | 57:34.18 |  6:01.49 |    259068    |   286191   

Track  1

     Filename D:\MUSIC\Дельфин\Дельфин - Существо (2014)\01. Дельфин – Начало.wav

     Pre-gap length  0:00:02.00

     Peak level 100.0 %
     Track quality 100.0 %
     Test CRC 44942537
     Copy CRC 44942537
     Copy OK

Track  2

     Filename D:\MUSIC\Дельфин\Дельфин - Существо (2014)\02. Дельфин – Ждут.wav

     Peak level 98.8 %
     Track quality 100.0 %
     Test CRC 0CF1F2DD
     Copy CRC 0CF1F2DD
     Copy OK

Track  3

     Filename D:\MUSIC\Дельфин\Дельфин - Существо (2014)\03. Дельфин – Темно.wav

     Peak level 98.8 %
     Track quality 100.0 %
     Test CRC 4CA18923
     Copy CRC 4CA18923
     Copy OK

Track  4

     Filename D:\MUSIC\Дельфин\Дельфин - Существо (2014)\04. Дельфин – Снеговик.wav

     Peak level 98.8 %
     Track quality 100.0 %
     Test CRC 3F4ABF5D
     Copy CRC 3F4ABF5D
     Copy OK

Track  5

     Filename D:\MUSIC\Дельфин\Дельфин - Существо (2014)\05. Дельфин – Sunset.wav

     Peak level 98.8 %
     Track quality 100.0 %
     Test CRC 12658DDA
     Copy CRC 12658DDA
     Copy OK

Track  6

     Filename D:\MUSIC\Дельфин\Дельфин - Существо (2014)\06. Дельфин – Прощай.wav

     Peak level 100.0 %
     Track quality 99.9 %
     Test CRC 3C5C2B3A
     Copy CRC 3C5C2B3A
     Copy OK

Track  7

     Filename D:\MUSIC\Дельфин\Дельфин - Существо (2014)\07. Дельфин – Васильки.wav

     Peak level 98.8 %
     Track quality 100.0 %
     Test CRC 6E10D88F
     Copy CRC 6E10D88F
     Copy OK

Track  8

     Filename D:\MUSIC\Дельфин\Дельфин - Существо (2014)\08. Дельфин – Не было.wav

     Peak level 98.8 %
     Track quality 99.9 %
     Test CRC B46C7998
     Copy CRC B46C7998
     Copy OK

Track  9

     Filename D:\MUSIC\Дельфин\Дельфин - Существо (2014)\09. Дельфин – 6-30 am.wav

     Peak level 98.8 %
     Track quality 100.0 %
     Test CRC 54938AB1
     Copy CRC 54938AB1
     Copy OK

Track 10

     Filename D:\MUSIC\Дельфин\Дельфин - Существо (2014)\10. Дельфин – Частицы.wav

     Peak level 98.8 %
     Track quality 100.0 %
     Test CRC DAA19230
     Copy CRC DAA19230
     Copy OK

Track 11

     Filename D:\MUSIC\Дельфин\Дельфин - Существо (2014)\11. Дельфин – Надо.wav

     Peak level 98.8 %
     Track quality 100.0 %
     Test CRC F20B5AB5
     Copy CRC F20B5AB5
     Copy OK

Track 12

     Filename D:\MUSIC\Дельфин\Дельфин - Существо (2014)\12. Дельфин – 1.wav

     Peak level 98.8 %
     Track quality 100.0 %
     Test CRC 596B3C3B
     Copy CRC 596B3C3B
     Copy OK

Track 13

     Filename D:\MUSIC\Дельфин\Дельфин - Существо (2014)\13. Дельфин – QT.wav

     Peak level 98.8 %
     Track quality 100.0 %
     Test CRC AA353411
     Copy CRC AA353411
     Copy OK

Track 14

     Filename D:\MUSIC\Дельфин\Дельфин - Существо (2014)\14. Дельфин – Всё.wav

     Peak level 100.0 %
     Track quality 99.9 %
     Test CRC 917584EB
     Copy CRC 917584EB
     Copy OK

No errors occurred

End of status report

Код:

REM GENRE Alternative
REM DATE 2014
REM DISCID C40EE70E
REM COMMENT "ExactAudioCopy v0.99pb5"
PERFORMER "Дельфин"
TITLE "Существо"
FILE "01. Дельфин – Начало.wav" WAVE
  TRACK 01 AUDIO
    TITLE "Начало"
    PERFORMER "Дельфин"
    INDEX 01 00:00:00
FILE "02. Дельфин – Ждут.wav" WAVE
  TRACK 02 AUDIO
    TITLE "Ждут"
    PERFORMER "Дельфин"
    INDEX 01 00:00:00
FILE "03. Дельфин – Темно.wav" WAVE
  TRACK 03 AUDIO
    TITLE "Темно"
    PERFORMER "Дельфин"
    INDEX 01 00:00:00
FILE "04. Дельфин – Снеговик.wav" WAVE
  TRACK 04 AUDIO
    TITLE "Снеговик"
    PERFORMER "Дельфин"
    INDEX 01 00:00:00
FILE "05. Дельфин – Sunset.wav" WAVE
  TRACK 05 AUDIO
    TITLE "Sunset"
    PERFORMER "Дельфин"
    INDEX 01 00:00:00
FILE "06. Дельфин – Прощай.wav" WAVE
  TRACK 06 AUDIO
    TITLE "Прощай"
    PERFORMER "Дельфин"
    INDEX 01 00:00:00
FILE "07. Дельфин – Васильки.wav" WAVE
  TRACK 07 AUDIO
    TITLE "Васильки"
    PERFORMER "Дельфин"
    INDEX 01 00:00:00
FILE "08. Дельфин – Не было.wav" WAVE
  TRACK 08 AUDIO
    TITLE "Не было"
    PERFORMER "Дельфин"
    INDEX 01 00:00:00
FILE "09. Дельфин – 6-30 am.wav" WAVE
  TRACK 09 AUDIO
    TITLE "6:30 am"
    PERFORMER "Дельфин"
    INDEX 01 00:00:00
FILE "10. Дельфин – Частицы.wav" WAVE
  TRACK 10 AUDIO
    TITLE "Частицы"
    PERFORMER "Дельфин"
    INDEX 01 00:00:00
FILE "11. Дельфин – Надо.wav" WAVE
  TRACK 11 AUDIO
    TITLE "Надо"
    PERFORMER "Дельфин"
    INDEX 01 00:00:00
FILE "12. Дельфин – 1.wav" WAVE
  TRACK 12 AUDIO
    TITLE "1"
    PERFORMER "Дельфин"
    INDEX 01 00:00:00
FILE "13. Дельфин – QT.wav" WAVE
  TRACK 13 AUDIO
    TITLE "QT"
    PERFORMER "Дельфин"
    INDEX 01 00:00:00
FILE "14. Дельфин – Всё.wav" WAVE
  TRACK 14 AUDIO
    TITLE "Всё"
    PERFORMER "Дельфин"
    INDEX 01 00:00:00

Discogs

Этот торрент недоступен для скачивания без регистрации, однако доступен по публичной magnet-ссылке (источники с публичных трекеров). Перед использованием ссылки прочтите, пожалуйста Пользовательское соглашение, а также как можно дольше оставайтесь на раздаче! Для того, чтобы скачать сам торрент-файл (который видит больше источников), а также для того, чтобы поблагодарить релизера, вам необходимо зарегистрироваться. Если регистрироваться лень - вы можете также попробовать скачать релиз по нашим партнерским ссылкам ниже. Кроме того, зарегистрированным пользователям не показывается всплывающая реклама при скачивании.

[underverse.me].t96674.torrent
Трекер: Зарегистрирован   [ 16.02.2018 16:36 ]  

Статус: проверено (by Бишеп at 16.02.2018 16:36)
Поблагодарили: пока никто не поблагодарил...
Тип торрента: публичный - доступные источники с открытых трекеров: 
Размер: 377 MB (занимает 0,08 DVDR, для записи нужно 1 болванка DVDR/RW)
 
 
Похожие темы
Форум Тема Автор Торрент Отв. Посл. сооб.
Зарубежная Pop Музыка (Alternative Pop, Neo Soul, Indie) Amanda Jenssen - Sanger fran on (2015) [MP3, 320 kbps] 90ytr90
1 | 0

0 | 1212

3

23.03.2015 19:02

Зарубежная Pop Музыка (Alternative, Indie) Anna of the North - Lovers (2017) [MP3, 320 kbps CBR] Darkferse
3 | 0

0 | 867

4

13.09.2017 08:47

Зарубежная Pop Музыка (Alternative, Pop, Soul) Plan B - Heaven Before All Hell Breaks Loose (2018) [MP3, 320 kbps CBR] 90ytr90
35 | 0

0 | 353

3

03.06.2018 05:52

Зарубежный Hard, Progressive, Soft, Melodic, AOR, Folk, Classic Rock (Alternative Rock / Progressive Rock) Muse - The 2nd Law (2012) [MP3, 320 kbps] Jimmy
0 | 0

0 | 1429

13

27.09.2012 04:30

Зарубежный Black, Death, Heavy, Thrash, Power, Folk, Gothic Metal (Alternative Metal) This Tragic Day - This Tragic Day (2012) [MP3, 320 kbps] NiiggazCPT
1 | 0

0 | 1597

4

28.10.2012 07:21

Зарубежный Punk, Hardcore, Grunge, Alternative (Alternative) Green Day - Greatest Hits: God's Favorite Band (2017) [iTunes AAC M4A, 256 kbps VBR] Web garry
1 | 0

5 | 3953

1

04.02.2010 17:52

Зарубежный Punk, Hardcore, Grunge, Alternative (Alternative) Red Hot Chili Peppers - Greatest Hits (2003) [iTunes AAC M4A, 256 kbps VBR] Web garry
2 | 0

0 | 2253

3

02.06.2009 18:51

Зарубежный Punk, Hardcore, Grunge, Alternative (Alternative) The Killers - Discography (2004-2013) [iTunes AAC M4A, 256 kbps VBR] Web garry
23 | 14

0 | 6650

4

20.06.2009 12:07

Зарубежный Punk, Hardcore, Grunge, Alternative (Alternative, Pop-Punk, Female Vocal) We Are the In Crowd - Weird Kids [Deluxe Edition] (2014) [MP3, 320 kbps] Jimmy
1 | 0

0 | 1248

3

23.04.2014 15:58

Зарубежный Punk, Hardcore, Grunge, Alternative (Alternative, Pop Punk, Emo) Fireworks - (Oh), Common Life (2014) [MP3, 320 kbps] Jimmy
0 | 1

0 | 1043

4

23.04.2014 15:55


Яндекс.Метрика powered by Sphinx


В Н И М А Н И Е
Сайт не распространяет и не хранит электронные версии произведений, а лишь бесплатно и без коммерческой выгоды (не требуя взамен платы,
SMS и т.д.) предоставляет доступ к создаваемому пользователями каталогу ссылок на торрент-файлы, которые содержат только списки хеш-сумм.
Убедительная просьба с жалобами обращаться напрямую к пользователю, разместившему торрент файл.

Вверх