Loading...
Error

(Punk Rock) Король и Шут - Акустический альбом (2000) [FLAC (Image+.Cue), Lossless]

Статистика раздачи
Размер:  405 MB   |    Зарегистрирован:  7 месяцев   |    Скачан:  5 раз
Сидов:  1  |  0 KB/s  ]   Личеров:  0  |  0 KB/s  ]

* - сиды/пиры с внешних источников

   
 
Автор Сообщение

Бишеп Пол:Муж

16-Фев-2018 20:12

Король и Шут - Акустический альбом

Жанр: Punk Rock
Год выпуска: 2000
Источник: CD
Производитель диска: Nox Music - NOX-007-CD
Аудиокодек: FLAC
Тип рипа: Image+.CUE
Битрейт аудио: lossless
Продолжительность: 00:52:49


Треклист:
01. Кукла колдуна (03:22)
02. Наблюдатель (04:43)
03. Бедняжка (04:08)
04. Прыгну со скалы (03:11)
05. Девушка и Граф (04:31)
06. Песня мушкетеров (03:48)
07. Тяни! (02:54)
08. Утренний рассвет (02:27)
09. Сосиска (02:11)
10. Карапуз (02:32)
11. Спятил отец (03:28)
12. Ведьма и Осел (02:56)
13. Екатерина (02:11)
14. Прерванная любовь, или Арбузная корка (02:56)
15. Мотоцикл (02:08)
16. Голые коки (02:38)
17. Забытые ботинки (02:47)

Код:

Exact Audio Copy V1.0 beta 3 from 29. August 2011

EAC extraction logfile from 22. December 2012, 20:44

Король и Шут / Акустический альбом

Used drive  : Optiarc DVD RW AD-7241S   Adapter: 1  ID: 2

Read mode               : Secure
Utilize accurate stream : Yes
Defeat audio cache      : Yes
Make use of C2 pointers : No

Read offset correction                      : 48
Overread into Lead-In and Lead-Out          : No
Fill up missing offset samples with silence : Yes
Delete leading and trailing silent blocks   : No
Null samples used in CRC calculations       : Yes
Used interface                              : Installed external ASPI interface

Used output format              : User Defined Encoder
Selected bitrate                : 128 kBit/s
Quality                         : High
Add ID3 tag                     : No
Command line compressor         : C:\Program Files (x86)\Exact Audio Copy\Flac\flac.exe
Additional command line options : -V -8 -T "ARTIST=%artist%" -T "TITLE=%title%" -T "ALBUM=%albumtitle%" -T "DATE=%year%" -T "TRACKNUMBER=%tracknr%" -T "GENRE=%genre%" -T "COMMENT=%comment%" %hascover%--picture="%coverfile%"%hascover% %source% -o %dest%

TOC of the extracted CD

     Track |   Start  |  Length  | Start sector | End sector
    ---------------------------------------------------------
        1  |  0:00.00 |  3:22.03 |         0    |    15152   
        2  |  3:22.03 |  4:42.44 |     15153    |    36346   
        3  |  8:04.47 |  4:08.15 |     36347    |    54961   
        4  | 12:12.62 |  3:10.53 |     54962    |    69264   
        5  | 15:23.40 |  4:31.25 |     69265    |    89614   
        6  | 19:54.65 |  3:47.39 |     89615    |   106678   
        7  | 23:42.29 |  2:53.71 |    106679    |   119724   
        8  | 26:36.25 |  2:27.19 |    119725    |   130768   
        9  | 29:03.44 |  2:10.46 |    130769    |   140564   
       10  | 31:14.15 |  2:32.36 |    140565    |   152000   
       11  | 33:46.51 |  3:28.00 |    152001    |   167600   
       12  | 37:14.51 |  2:55.54 |    167601    |   180779   
       13  | 40:10.30 |  2:10.54 |    180780    |   190583   
       14  | 42:21.09 |  2:55.65 |    190584    |   203773   
       15  | 45:16.74 |  2:08.26 |    203774    |   213399   
       16  | 47:25.25 |  2:37.45 |    213400    |   225219   
       17  | 50:02.70 |  2:46.40 |    225220    |   237709   

Range status and errors

Selected range

     Filename D:\Король и Шут\[2000] - Акустический альбом (NOX Music)\Король и Шут - Акустический альбом.wav

     Peak level 99.9 %
     Extraction speed 4.1 X
     Range quality 100.0 %
     Test CRC B08F68EB
     Copy CRC B08F68EB
     Copy OK

No errors occurred

 
AccurateRip summary
 
Track  1  not present in database
Track  2  not present in database
Track  3  not present in database
Track  4  not present in database
Track  5  not present in database
Track  6  not present in database
Track  7  not present in database
Track  8  not present in database
Track  9  not present in database
Track 10  not present in database
Track 11  not present in database
Track 12  not present in database
Track 13  not present in database
Track 14  not present in database
Track 15  not present in database
Track 16  not present in database
Track 17  not present in database
 
None of the tracks are present in the AccurateRip database

End of status report

---- CUETools DB Plugin V2.1.4

[CTDB TOCID: o5T2Kc2p3tBHSycsWXPP_f_Ofuk-] found
Submit result: already submitted
Track | CTDB Status
  1   | (1/1) Accurately ripped
  2   | (1/1) Accurately ripped
  3   | (1/1) Accurately ripped
  4   | (1/1) Accurately ripped
  5   | (1/1) Accurately ripped
  6   | (1/1) Accurately ripped
  7   | (1/1) Accurately ripped
  8   | (1/1) Accurately ripped
  9   | (1/1) Accurately ripped
 10   | (1/1) Accurately ripped
 11   | (1/1) Accurately ripped
 12   | (1/1) Accurately ripped
 13   | (1/1) Accurately ripped
 14   | (1/1) Accurately ripped
 15   | (1/1) Accurately ripped
 16   | (1/1) Accurately ripped
 17   | (1/1) Accurately ripped

==== Log checksum 57D65496F2DA96A49B3FC818AF22983CE1471E60DD3897B270D099FF5E43BFC8 ====

Код:

REM GENRE "Punk Rock"
REM DATE 2000
REM DISCID F00C6111
REM COMMENT "ExactAudioCopy v1.0b3"
PERFORMER "Король и Шут"
TITLE "Акустический альбом"
FILE "Король и Шут - Акустический альбом.flac" WAVE
  TRACK 01 AUDIO
    TITLE "Кукла колдуна"
    PERFORMER "Король и Шут"
    INDEX 01 00:00:00
  TRACK 02 AUDIO
    TITLE "Наблюдатель"
    PERFORMER "Король и Шут"
    INDEX 01 03:22:03
  TRACK 03 AUDIO
    TITLE "Бедняжка"
    PERFORMER "Король и Шут"
    INDEX 01 08:04:47
  TRACK 04 AUDIO
    TITLE "Прыгну со скалы"
    PERFORMER "Король и Шут"
    INDEX 01 12:12:62
  TRACK 05 AUDIO
    TITLE "Девушка и Граф"
    PERFORMER "Король и Шут"
    INDEX 01 15:23:40
  TRACK 06 AUDIO
    TITLE "Песня мушкетеров"
    PERFORMER "Король и Шут"
    INDEX 01 19:54:65
  TRACK 07 AUDIO
    TITLE "Тяни!"
    PERFORMER "Король и Шут"
    INDEX 01 23:42:29
  TRACK 08 AUDIO
    TITLE "Утренний рассвет"
    PERFORMER "Король и Шут"
    INDEX 01 26:36:25
  TRACK 09 AUDIO
    TITLE "Сосиска"
    PERFORMER "Король и Шут"
    INDEX 01 29:03:44
  TRACK 10 AUDIO
    TITLE "Карапуз"
    PERFORMER "Король и Шут"
    INDEX 01 31:14:15
  TRACK 11 AUDIO
    TITLE "Спятил отец"
    PERFORMER "Король и Шут"
    INDEX 01 33:46:51
  TRACK 12 AUDIO
    TITLE "Ведьма и Осел"
    PERFORMER "Король и Шут"
    INDEX 01 37:14:51
  TRACK 13 AUDIO
    TITLE "Екатерина"
    PERFORMER "Король и Шут"
    INDEX 01 40:10:30
  TRACK 14 AUDIO
    TITLE "Прерванная любовь, или Арбузная корка"
    PERFORMER "Король и Шут"
    INDEX 01 42:21:09
  TRACK 15 AUDIO
    TITLE "Мотоцикл"
    PERFORMER "Король и Шут"
    INDEX 01 45:16:74
  TRACK 16 AUDIO
    TITLE "Голые коки"
    PERFORMER "Король и Шут"
    INDEX 01 47:25:25
  TRACK 17 AUDIO
    TITLE "Забытые ботинки"
    PERFORMER "Король и Шут"
    INDEX 01 50:02:70

Discogs

Этот торрент недоступен для скачивания без регистрации, однако доступен по публичной magnet-ссылке (источники с публичных трекеров). Перед использованием ссылки прочтите, пожалуйста Пользовательское соглашение, а также как можно дольше оставайтесь на раздаче! Для того, чтобы скачать сам торрент-файл (который видит больше источников), а также для того, чтобы поблагодарить релизера, вам необходимо зарегистрироваться. Если регистрироваться лень - вы можете также попробовать скачать релиз по нашим партнерским ссылкам ниже. Кроме того, зарегистрированным пользователям не показывается всплывающая реклама при скачивании.

[underverse.me].t96802.torrent
Трекер: Зарегистрирован   [ 16.02.2018 20:12 ]  

Статус: проверено (by Бишеп at 16.02.2018 20:12)
Поблагодарили: пока никто не поблагодарил...
Тип торрента: публичный - доступные источники с открытых трекеров: 
Размер: 405 MB (занимает 0,09 DVDR, для записи нужно 1 болванка DVDR/RW)
 
 
Похожие темы
Форум Тема Автор Торрент Отв. Посл. сооб.
Зарубежный Punk, Hardcore, Grunge, Alternative (Punk Rock/Street Punk) BRDigung - In Goldenen Ketten (2014) [MP3, 320 kbps] Jimmy
1 | 0

0 | 1125

4

23.04.2014 16:00

Зарубежный Punk, Hardcore, Grunge, Alternative (Punk Rock/Heavy Punk) Desakato - Buen Viaje (2014) [MP3, 320 kbps] Jimmy
1 | 0

0 | 836

5

23.04.2014 15:53

Зарубежный Punk, Hardcore, Grunge, Alternative (Punk Rock) Richie Ramone - Entitled [ex-Ramones] (2013) [MP3, 320 kbps] Jimmy
1 | 0

0 | 2112

2

21.12.2013 08:03

Зарубежный Punk, Hardcore, Grunge, Alternative (Punk Rock/Old School Pop Punk) The Bugs - 2 альбома (The Bugs/Missile To The Middle East) (2008/2013) [MP3, 320 kbps] Jimmy
1 | 0

0 | 2181

0

21.12.2013 08:06

Зарубежный Punk, Hardcore, Grunge, Alternative (Punk Rock) The So So Glos - Blowout (2013) [MP3, 320 kbps] Jimmy
1 | 0

0 | 1874

1

04.01.2014 10:17

Зарубежный Punk, Hardcore, Grunge, Alternative (Punk Rock | Melodic Hardcore) Noopinion - No Chains For Change (2013) [MP3, 320 kbps] Jimmy
0 | 0

0 | 1821

2

04.01.2014 14:20

Зарубежный Punk, Hardcore, Grunge, Alternative (Punk Rock) Stiff Little Fingers - No Going Back (2014) [MP3, 320 kbps] Jimmy
1 | 6

0 | 1805

5

23.03.2014 05:20

Зарубежный Punk, Hardcore, Grunge, Alternative (Punk Rock, Skate Punk, Melodic Punk) Authority Zero - Broadcasting To The Nations (2017) [MP3, 320 kbps CBR] Darkferse
2 | 0

0 | 899

2

02.06.2017 15:14

Зарубежный Punk, Hardcore, Grunge, Alternative (Punk Rock, Reggae) Anti-Nowhere League - League Style (Loosen Up Volume 1) (2017) [MP3, 320 kbps CBR] Darkferse
1 | 1

0 | 504

1

05.06.2017 23:58

Зарубежный Punk, Hardcore, Grunge, Alternative (Punk Rock) Beatsteaks - YOURS (2017) [MP3, 320 kbps CBR] Darkferse
1 | 0

0 | 572

1

06.09.2017 10:18


Яндекс.Метрика powered by Sphinx


В Н И М А Н И Е
Сайт не распространяет и не хранит электронные версии произведений, а лишь бесплатно и без коммерческой выгоды (не требуя взамен платы,
SMS и т.д.) предоставляет доступ к создаваемому пользователями каталогу ссылок на торрент-файлы, которые содержат только списки хеш-сумм.
Убедительная просьба с жалобами обращаться напрямую к пользователю, разместившему торрент файл.

Вверх