Loading...
Error

(Pop Rock, New Wave) Чернавский/Матецкий Проджект - Банановые Острова (2014) [FLAC (Image+.Cue), Lossless]

Статистика раздачи
Размер:  311 MB   |    Зарегистрирован:  7 месяцев   |    Скачан:  2 раза

Полного источника не было: 2 часа 38 минут

Сидов:  0  |  0 KB/s  ]   Личеров:  0  |  0 KB/s  ]

* - сиды/пиры с внешних источников

   
 
Автор Сообщение

Бишеп Пол:Муж

17-Фев-2018 07:25

Чернавский/Матецкий Проджект - Банановые Острова

Жанр: Pop Rock, New Wave
Год выпуска: 2014
Источник: CD
Производитель диска: APEX Records/SBI Records - AXCD 3-0016
Аудиокодек: FLAC
Тип рипа: Image+.CUE
Битрейт аудио: lossless
Продолжительность: 00:43:39


Треклист:
01. Банановые Острова
02. Зебра
03. Здравствуй, мальчик Бананан!
04. Становитесь в очередь за мной!
05. Инструментал
06. Я сам
07. Мечта идиота
08. Робот
09. Я иду к тебе

Код:

Exact Audio Copy V1.0 beta 3 from 29. August 2011

Отчёт EAC об извлечении, выполненном 11. апреля 2014, 9:45

Чернавский/Матецкий проджект / Банановые Острова

Дисковод: Optiarc DVD RW AD-5240S   Adapter: 2  ID: 1

Режим чтения                 : Достоверность
Использование точного потока : Да
Отключение кэша аудио        : Да
Использование указателей C2  : Нет

Коррекция смещения при чтении                     : 48
Способность читать области Lead-in и Lead-out     : Нет
Заполнение пропущенных сэмплов тишиной            : Да
Удаление блоков с тишиной в начале и конце        : Нет
При вычислениях CRC использовались нулевые сэмплы : Да
Интерфейс                                         : Встроенный Win32-интерфейс для Win NT/2000

Выходной формат : Внутренние WAV-операции
Формат сэмплов  : 44.100 Гц; 16 бит; стерео

TOC извлечённого CD

     Трек |   Старт  | Длительность | Начальный сектор | Конечный сектор
    ---------------------------------------------------------------------
       1  |  0:00.00 |    6:54.27   |           0      |      31076     
       2  |  6:54.27 |    4:04.13   |       31077      |      49389     
       3  | 10:58.40 |    7:06.35   |       49390      |      81374     
       4  | 18:05.00 |    5:01.26   |       81375      |     103975     
       5  | 23:06.26 |    2:41.08   |      103976      |     116058     
       6  | 25:47.34 |    4:19.58   |      116059      |     135541     
       7  | 30:07.17 |    6:44.06   |      135542      |     165847     
       8  | 36:51.23 |    4:30.30   |      165848      |     186127     
       9  | 41:21.53 |    2:17.31   |      186128      |     196433     

Характеристики диапазона извлечения и сообщения об ошибках

Выбранный диапазон

     Имя файла D:\Чернавский,Матецкий проджект - Банановые Острова.wav

     Пиковый уровень 99.0 %
     Скорость извлечения 3.9 X
     Качество диапазона 99.9 %
     CRC теста 71628EF2
     CRC копии 71628EF2
     Копирование... OK

Ошибок не произошло

 
AccurateRip: сводка
 
Трек  1  отсутствует в базе данных
Трек  2  отсутствует в базе данных
Трек  3  отсутствует в базе данных
Трек  4  отсутствует в базе данных
Трек  5  отсутствует в базе данных
Трек  6  отсутствует в базе данных
Трек  7  отсутствует в базе данных
Трек  8  отсутствует в базе данных
Трек  9  отсутствует в базе данных
 
Ни одного трека нет в базе AccurateRip

Конец отчёта

==== Контрольная сумма отчёта A5452CA787BEC4D7595C9A1565E3523F7BE40AD0BF517AB003A19A14DCEBA347 ====

Код:

REM GENRE "New Wave"
REM DATE 2014
REM DISCID 7B0A3B09
REM COMMENT "ExactAudioCopy v1.0b3"
PERFORMER "Чернавский/Матецкий проджект"
TITLE "Банановые Острова"
FILE "Чернавский,Матецкий проджект - Банановые Острова.flac" WAVE
  TRACK 01 AUDIO
    TITLE "Банановые острова"
    PERFORMER "Чернавский/Матецкий проджект"
    FLAGS DCP
    INDEX 01 00:00:00
  TRACK 02 AUDIO
    TITLE "Зебра"
    PERFORMER "Чернавский/Матецкий проджект"
    FLAGS DCP
    INDEX 00 06:52:27
    INDEX 01 06:54:27
  TRACK 03 AUDIO
    TITLE "Здравствуй,мальчик Бананан!"
    PERFORMER "Чернавский/Матецкий проджект"
    FLAGS DCP
    INDEX 00 10:56:40
    INDEX 01 10:58:40
  TRACK 04 AUDIO
    TITLE "Становитесь в очередь за мной!"
    PERFORMER "Чернавский/Матецкий проджект"
    FLAGS DCP
    INDEX 00 18:03:00
    INDEX 01 18:05:00
  TRACK 05 AUDIO
    TITLE "Инструментал"
    PERFORMER "Чернавский/Матецкий проджект"
    FLAGS DCP
    INDEX 00 23:04:26
    INDEX 01 23:06:26
  TRACK 06 AUDIO
    TITLE "Я сам"
    PERFORMER "Чернавский/Матецкий проджект"
    FLAGS DCP
    INDEX 00 25:45:34
    INDEX 01 25:47:34
  TRACK 07 AUDIO
    TITLE "Мечта идиота"
    PERFORMER "Чернавский/Матецкий проджект"
    FLAGS DCP
    INDEX 00 30:05:17
    INDEX 01 30:07:17
  TRACK 08 AUDIO
    TITLE "Робот"
    PERFORMER "Чернавский/Матецкий проджект"
    FLAGS DCP
    INDEX 00 36:49:23
    INDEX 01 36:51:23
  TRACK 09 AUDIO
    TITLE "Я иду к тебе"
    PERFORMER "Чернавский/Матецкий проджект"
    FLAGS DCP
    INDEX 00 41:19:53
    INDEX 01 41:21:53

Discogs

Этот торрент недоступен для скачивания без регистрации, однако доступен по публичной magnet-ссылке (источники с публичных трекеров). Перед использованием ссылки прочтите, пожалуйста Пользовательское соглашение, а также как можно дольше оставайтесь на раздаче! Для того, чтобы скачать сам торрент-файл (который видит больше источников), а также для того, чтобы поблагодарить релизера, вам необходимо зарегистрироваться. Если регистрироваться лень - вы можете также попробовать скачать релиз по нашим партнерским ссылкам ниже. Кроме того, зарегистрированным пользователям не показывается всплывающая реклама при скачивании.

[underverse.me].t96865.torrent
Трекер: Зарегистрирован   [ 17.02.2018 07:25 ]  

Статус: проверено (by Бишеп at 17.02.2018 07:26)
Поблагодарили: пока никто не поблагодарил...
Тип торрента: публичный - доступные источники с открытых трекеров: 
Размер: 311 MB (занимает 0,07 DVDR, для записи нужно 1 болванка DVDR/RW)
 
 
Похожие темы
Форум Тема Автор Торрент Отв. Посл. сооб.
Зарубежная Pop Музыка (Pop rock, Pop) Red Canzian - Testimone Del Tempo (2018) [MP3, 320 kbps] 90ytr90
3 | 0

0 | 533

2

18.02.2018 08:17

Зарубежный Hard, Progressive, Soft, Melodic, AOR, Folk, Classic Rock (Pop Rock, Christian) Housefires - We Say Yes (2017) [MP3, 320 kbps CBR] Darkferse
2 | 0

0 | 434

2

06.06.2017 10:20

Зарубежный Hard, Progressive, Soft, Melodic, AOR, Folk, Classic Rock (Pop Rock, Glam Rock, Synthpop) Sparks - Hippopotamus (2017) [MP3, 320 kbps CBR] Darkferse
1 | 0

0 | 963

5

13.09.2017 14:57

Зарубежный Hard, Progressive, Soft, Melodic, AOR, Folk, Classic Rock (Pop Rock, Britpop) Ben Brookes - The Motor Car & the Weather Balloon (2017) [MP3, 320 kbps CBR] Darkferse
0 | 0

0 | 351

1

03.01.2018 01:09

Зарубежная Поп Музыка (Lossless) (Pop Rock, Jazz) George Michael - Older (1996) [FLAC (Tracks+.Cue), Lossless] Бишеп
7 | 3

0 | 1654

10

07.11.2016 18:29

Зарубежная Поп Музыка (Lossless) (Pop Rock, Soft Rock) OneRepublic - Native (Deluxe Edition) (2013) [FLAC (Image+.CUE), Lossless] Бишеп
0 | 0

1 | 2413

14

03.11.2013 12:04

Зарубежная Поп Музыка (Lossless) (Pop Rock, Disco) Bee Gees - The Bee Gees' History (1985) [FLAC (Image+.CUE), Lossless] Бишеп
1 | 0

1 | 2311

17

03.11.2013 12:38

Зарубежная Поп Музыка (Lossless) (Pop Rock, Electronic) Falco - Golden Hits (1995) [FLAC (Tracks+.CUE), Lossless] Бишеп
2 | 0

0 | 2449

16

18.11.2013 07:19

Зарубежная Поп Музыка (Lossless) (Pop Rock, Euro House) Eros Ramazzotti & Cher - Piu Che Puoi (CD-Maxi) (2001) [FLAC (Image+.CUE), Lossless] Бишеп
1 | 1

0 | 2071

11

06.01.2014 13:43

Зарубежная Поп Музыка (Lossless) (Pop Rock, Soft Rock) Chris Isaak - Blue Hotel (CD-Maxi) (1991) [FLAC (Image+.CUE), Lossless] Бишеп
2 | 0

0 | 1571

12

12.01.2014 05:54


Яндекс.Метрика powered by Sphinx


В Н И М А Н И Е
Сайт не распространяет и не хранит электронные версии произведений, а лишь бесплатно и без коммерческой выгоды (не требуя взамен платы,
SMS и т.д.) предоставляет доступ к создаваемому пользователями каталогу ссылок на торрент-файлы, которые содержат только списки хеш-сумм.
Убедительная просьба с жалобами обращаться напрямую к пользователю, разместившему торрент файл.

Вверх