Loading...
Error

(Alternative Rock, Punk Rock) Louna - Время X (2012) [FLAC (Tracks+.Cue), Lossless]

Статистика раздачи
Размер:  517 MB   |    Зарегистрирован:  5 месяцев 26 дней   |    Скачан:  1 раз

Полного источника не было: 4 месяца 18 дней

Сидов:  0  |  0 KB/s  ]   Личеров:  0  |  0 KB/s  ]

* - сиды/пиры с внешних источников

   
 
Автор Сообщение

Бишеп Пол:Муж

17-Фев-2018 10:28

Louna - Время X

Жанр: Alternative Rock, Punk Rock
Год выпуска: 2012
Источник: CD
Производитель диска: Союз/Chaotic Noiz - SZCD 7548-12
Аудиокодек: FLAC
Тип рипа: Tracks+.CUE
Битрейт аудио: lossless
Продолжительность: 00:54:38


Треклист:
01. Проснись и Пой!
02. Каждый Вправе (feat. Сергей Михалок)
03. Жесты
04. Словно Форрест Гамп
05. Время X
06. Все Как Один (feat. Александр "Чача" Иванов)
07. Люди Смотрят Вверх
08. Ночь, Дорога и Рок
09. Мама
10. Против Всех
11. Ящик Пандоры
12. Штурмуя Небеса
13. Кто, Если не Мы?
14. Мир и Любовь

Код:

Exact Audio Copy V1.0 beta 3 from 29. August 2011

EAC extraction logfile from 26. February 2012, 17:32

Louna / Время X

Used drive  : Optiarc DVD RW AD-7203A   Adapter: 4  ID: 0

Read mode               : Secure
Utilize accurate stream : Yes
Defeat audio cache      : Yes
Make use of C2 pointers : No

Read offset correction                      : 48
Overread into Lead-In and Lead-Out          : No
Fill up missing offset samples with silence : Yes
Delete leading and trailing silent blocks   : No
Null samples used in CRC calculations       : Yes
Used interface                              : Native Win32 interface for Win NT & 2000
Gap handling                                : Appended to previous track

Used output format              : User Defined Encoder
Selected bitrate                : 1024 kBit/s
Quality                         : High
Add ID3 tag                     : No
Command line compressor         : C:\Program Files\Exact Audio Copy\Flac\flac.exe
Additional command line options : -8 -V -T "comment=" -T "ARTIST=%artist%" -T "TITLE=%title%" -T "ALBUM=%albumtitle%" -T "DATE=%year%" -T "TRACKNUMBER=%tracknr%" -T "GENRE=%genre%" -T "PERFORMER=%albuminterpret%" -T "COMPOSER=%composer%" %haslyrics%--tag-from-file=LYRICS="%lyricsfile%"%haslyrics% -T "ALBUMARTIST=%albumartist%" -T "ALBUM ARTIST=%albumartist%" -T "DISCNUMBER=%cdnumber%" -T "TOTALDISCS=%totalcds%" -T "TOTALTRACKS=%numtracks%" %source% -o %dest%

TOC of the extracted CD

     Track |   Start  |  Length  | Start sector | End sector
    ---------------------------------------------------------
        1  |  0:00.00 |  4:06.46 |         0    |    18495   
        2  |  4:06.46 |  3:45.33 |     18496    |    35403   
        3  |  7:52.04 |  3:43.33 |     35404    |    52161   
        4  | 11:35.37 |  3:25.09 |     52162    |    67545   
        5  | 15:00.46 |  3:45.61 |     67546    |    84481   
        6  | 18:46.32 |  2:42.12 |     84482    |    96643   
        7  | 21:28.44 |  4:25.33 |     96644    |   116551   
        8  | 25:54.02 |  3:12.68 |    116552    |   131019   
        9  | 29:06.70 |  3:58.25 |    131020    |   148894   
       10  | 33:05.20 |  3:54.03 |    148895    |   166447   
       11  | 36:59.23 |  4:59.04 |    166448    |   188876   
       12  | 41:58.27 |  3:59.07 |    188877    |   206808   
       13  | 45:57.34 |  4:14.09 |    206809    |   225867   
       14  | 50:11.43 |  4:27.16 |    225868    |   245908   

Track  1

     Filename D:\Музыка во FLAC\Change.CD\Louna\Louna - 2012 - Время X [FLAC]\01. Louna - Проснись и Пой!.wav

     Pre-gap length  0:00:02.00

     Peak level 98.8 %
     Extraction speed 2.3 X
     Track quality 100.0 %
     Test CRC C3BF8CAC
     Copy CRC C3BF8CAC
     Track not present in AccurateRip database
     Copy OK

Track  2

     Filename D:\Музыка во FLAC\Change.CD\Louna\Louna - 2012 - Время X [FLAC]\02. Louna - Каждый Вправе (feat. Сергей Михалок).wav

     Pre-gap length  0:00:02.00

     Peak level 98.8 %
     Extraction speed 2.2 X
     Track quality 99.9 %
     Test CRC F18037DB
     Copy CRC F18037DB
     Track not present in AccurateRip database
     Copy OK

Track  3

     Filename D:\Музыка во FLAC\Change.CD\Louna\Louna - 2012 - Время X [FLAC]\03. Louna - Жесты.wav

     Pre-gap length  0:00:02.00

     Peak level 98.8 %
     Extraction speed 2.4 X
     Track quality 99.9 %
     Test CRC 3B02866F
     Copy CRC 3B02866F
     Track not present in AccurateRip database
     Copy OK

Track  4

     Filename D:\Музыка во FLAC\Change.CD\Louna\Louna - 2012 - Время X [FLAC]\04. Louna - Словно Форрест Гамп.wav

     Pre-gap length  0:00:02.00

     Peak level 98.8 %
     Extraction speed 2.8 X
     Track quality 100.0 %
     Test CRC 0722FB4B
     Copy CRC 0722FB4B
     Track not present in AccurateRip database
     Copy OK

Track  5

     Filename D:\Музыка во FLAC\Change.CD\Louna\Louna - 2012 - Время X [FLAC]\05. Louna - Время X.wav

     Pre-gap length  0:00:02.00

     Peak level 98.8 %
     Extraction speed 3.1 X
     Track quality 100.0 %
     Test CRC D576FEB8
     Copy CRC D576FEB8
     Track not present in AccurateRip database
     Copy OK

Track  6

     Filename D:\Музыка во FLAC\Change.CD\Louna\Louna - 2012 - Время X [FLAC]\06. Louna - Все Как Один (feat. Александр ''Чача'' Иванов).wav

     Pre-gap length  0:00:02.00

     Peak level 98.8 %
     Extraction speed 3.1 X
     Track quality 100.0 %
     Test CRC F75CCE3E
     Copy CRC F75CCE3E
     Track not present in AccurateRip database
     Copy OK

Track  7

     Filename D:\Музыка во FLAC\Change.CD\Louna\Louna - 2012 - Время X [FLAC]\07. Louna - Люди Смотрят Вверх.wav

     Pre-gap length  0:00:02.00

     Peak level 98.8 %
     Extraction speed 3.6 X
     Track quality 100.0 %
     Test CRC F2C8A220
     Copy CRC F2C8A220
     Track not present in AccurateRip database
     Copy OK

Track  8

     Filename D:\Музыка во FLAC\Change.CD\Louna\Louna - 2012 - Время X [FLAC]\08. Louna - Ночь, Дорога и Рок.wav

     Pre-gap length  0:00:02.00

     Peak level 98.8 %
     Extraction speed 3.0 X
     Track quality 99.9 %
     Test CRC 52573DEC
     Copy CRC 52573DEC
     Track not present in AccurateRip database
     Copy OK

Track  9

     Filename D:\Музыка во FLAC\Change.CD\Louna\Louna - 2012 - Время X [FLAC]\09. Louna - Мама.wav

     Pre-gap length  0:00:02.00

     Peak level 98.8 %
     Extraction speed 3.8 X
     Track quality 100.0 %
     Test CRC 8B8FEA1C
     Copy CRC 8B8FEA1C
     Track not present in AccurateRip database
     Copy OK

Track 10

     Filename D:\Музыка во FLAC\Change.CD\Louna\Louna - 2012 - Время X [FLAC]\10. Louna - Против Всех.wav

     Pre-gap length  0:00:02.00

     Peak level 98.8 %
     Extraction speed 3.4 X
     Track quality 99.9 %
     Test CRC 16C6661E
     Copy CRC 16C6661E
     Track not present in AccurateRip database
     Copy OK

Track 11

     Filename D:\Музыка во FLAC\Change.CD\Louna\Louna - 2012 - Время X [FLAC]\11. Louna - Ящик Пандоры.wav

     Pre-gap length  0:00:02.00

     Peak level 98.8 %
     Extraction speed 4.2 X
     Track quality 100.0 %
     Test CRC 982CF159
     Copy CRC 982CF159
     Track not present in AccurateRip database
     Copy OK

Track 12

     Filename D:\Музыка во FLAC\Change.CD\Louna\Louna - 2012 - Время X [FLAC]\12. Louna - Штурмуя Небеса.wav

     Pre-gap length  0:00:02.00

     Peak level 98.8 %
     Extraction speed 4.2 X
     Track quality 100.0 %
     Test CRC 01D23E0D
     Copy CRC 01D23E0D
     Track not present in AccurateRip database
     Copy OK

Track 13

     Filename D:\Музыка во FLAC\Change.CD\Louna\Louna - 2012 - Время X [FLAC]\13. Louna - Кто, Если не Мы.wav

     Pre-gap length  0:00:02.00

     Peak level 98.8 %
     Extraction speed 4.5 X
     Track quality 100.0 %
     Test CRC 2F340779
     Copy CRC 2F340779
     Track not present in AccurateRip database
     Copy OK

Track 14

     Filename D:\Музыка во FLAC\Change.CD\Louna\Louna - 2012 - Время X [FLAC]\14. Louna - Мир и Любовь.wav

     Pre-gap length  0:00:02.00

     Peak level 98.8 %
     Extraction speed 4.6 X
     Track quality 100.0 %
     Test CRC 5023C181
     Copy CRC 5023C181
     Track not present in AccurateRip database
     Copy OK

None of the tracks are present in the AccurateRip database

No errors occurred

End of status report

---- CUETools DB Plugin V2.1.3

[CTDB TOCID: aWEtVmtG7XG_ivgIS8na0NUnnh4-] disk not present in database, Submit result: aWEtVmtG7XG_ivgIS8na0NUnnh4- has been uploaded

==== Log checksum 2858582742849FE5D1CAB87EB98C49BC826EE6B04867A84BDC66EEB70C61B208 ====

Код:

REM GENRE "Alternative Rock"
REM DATE 2012
REM DISCID C40CCE0E
REM COMMENT "ExactAudioCopy v1.0b3"
PERFORMER "Louna"
TITLE "Время X"
FILE "01. Louna - Проснись и Пой!.wav" WAVE
  TRACK 01 AUDIO
    TITLE "Проснись и Пой!"
    PERFORMER "Louna"
    INDEX 01 00:00:00
  TRACK 02 AUDIO
    TITLE "Каждый Вправе (feat. Сергей Михалок)"
    PERFORMER "Louna"
    INDEX 00 04:04:46
FILE "02. Louna - Каждый Вправе (feat. Сергей Михалок).wav" WAVE
    INDEX 01 00:00:00
  TRACK 03 AUDIO
    TITLE "Жесты"
    PERFORMER "Louna"
    INDEX 00 03:43:33
FILE "03. Louna - Жесты.wav" WAVE
    INDEX 01 00:00:00
  TRACK 04 AUDIO
    TITLE "Словно Форрест Гамп"
    PERFORMER "Louna"
    INDEX 00 03:41:33
FILE "04. Louna - Словно Форрест Гамп.wav" WAVE
    INDEX 01 00:00:00
  TRACK 05 AUDIO
    TITLE "Время X"
    PERFORMER "Louna"
    INDEX 00 03:23:09
FILE "05. Louna - Время X.wav" WAVE
    INDEX 01 00:00:00
  TRACK 06 AUDIO
    TITLE "Все Как Один (feat. Александр 'Чача' Иванов)"
    PERFORMER "Louna"
    INDEX 00 03:43:61
FILE "06. Louna - Все Как Один (feat. Александр ''Чача'' Иванов).wav" WAVE
    INDEX 01 00:00:00
  TRACK 07 AUDIO
    TITLE "Люди Смотрят Вверх"
    PERFORMER "Louna"
    INDEX 00 02:40:12
FILE "07. Louna - Люди Смотрят Вверх.wav" WAVE
    INDEX 01 00:00:00
  TRACK 08 AUDIO
    TITLE "Ночь, Дорога и Рок"
    PERFORMER "Louna"
    INDEX 00 04:23:33
FILE "08. Louna - Ночь, Дорога и Рок.wav" WAVE
    INDEX 01 00:00:00
  TRACK 09 AUDIO
    TITLE "Мама"
    PERFORMER "Louna"
    INDEX 00 03:10:68
FILE "09. Louna - Мама.wav" WAVE
    INDEX 01 00:00:00
  TRACK 10 AUDIO
    TITLE "Против Всех"
    PERFORMER "Louna"
    INDEX 00 03:56:25
FILE "10. Louna - Против Всех.wav" WAVE
    INDEX 01 00:00:00
  TRACK 11 AUDIO
    TITLE "Ящик Пандоры"
    PERFORMER "Louna"
    INDEX 00 03:52:03
FILE "11. Louna - Ящик Пандоры.wav" WAVE
    INDEX 01 00:00:00
  TRACK 12 AUDIO
    TITLE "Штурмуя Небеса"
    PERFORMER "Louna"
    INDEX 00 04:57:04
FILE "12. Louna - Штурмуя Небеса.wav" WAVE
    INDEX 01 00:00:00
  TRACK 13 AUDIO
    TITLE "Кто, Если не Мы?"
    PERFORMER "Louna"
    INDEX 00 03:57:07
FILE "13. Louna - Кто, Если не Мы.wav" WAVE
    INDEX 01 00:00:00
  TRACK 14 AUDIO
    TITLE "Мир и Любовь"
    PERFORMER "Louna"
    INDEX 00 04:12:09
FILE "14. Louna - Мир и Любовь.wav" WAVE
    INDEX 01 00:00:00

Discogs

Этот торрент недоступен для скачивания без регистрации, однако доступен по публичной magnet-ссылке (источники с публичных трекеров). Перед использованием ссылки прочтите, пожалуйста Пользовательское соглашение, а также как можно дольше оставайтесь на раздаче! Для того, чтобы скачать сам торрент-файл (который видит больше источников), а также для того, чтобы поблагодарить релизера, вам необходимо зарегистрироваться. Если регистрироваться лень - вы можете также попробовать скачать релиз по нашим партнерским ссылкам ниже. Кроме того, зарегистрированным пользователям не показывается всплывающая реклама при скачивании.

[underverse.me].t96894.torrent
Трекер: Зарегистрирован   [ 17.02.2018 10:28 ]  

Статус: проверено (by Бишеп at 17.02.2018 10:28)
Поблагодарили: пока никто не поблагодарил...
Тип торрента: публичный - доступные источники с открытых трекеров: 
Размер: 517 MB (занимает 0,12 DVDR, для записи нужно 1 болванка DVDR/RW)
 
 
Похожие темы
Форум Тема Автор Торрент Отв. Посл. сооб.
Зарубежная Pop Музыка (Alternative Pop, Neo Soul, Indie) Amanda Jenssen - Sanger fran on (2015) [MP3, 320 kbps] 90ytr90
0 | 1

0 | 1173

3

23.03.2015 19:02

Зарубежная Pop Музыка (Alternative, Indie) Anna of the North - Lovers (2017) [MP3, 320 kbps CBR] Darkferse
5 | 0

0 | 827

4

13.09.2017 08:47

Зарубежная Pop Музыка (Alternative, Pop, Soul) Plan B - Heaven Before All Hell Breaks Loose (2018) [MP3, 320 kbps CBR] 90ytr90
23 | 0

0 | 286

3

03.06.2018 05:52

Зарубежный Hard, Progressive, Soft, Melodic, AOR, Folk, Classic Rock (Alternative Rock / Progressive Rock) Muse - The 2nd Law (2012) [MP3, 320 kbps] Jimmy
0 | 0

0 | 1392

13

27.09.2012 04:30

Зарубежный Black, Death, Heavy, Thrash, Power, Folk, Gothic Metal (Alternative Metal) This Tragic Day - This Tragic Day (2012) [MP3, 320 kbps] NiiggazCPT
1 | 0

0 | 1565

4

28.10.2012 07:21

Зарубежный Punk, Hardcore, Grunge, Alternative (Alternative) Green Day - Greatest Hits: God's Favorite Band (2017) [iTunes AAC M4A, 256 kbps VBR] Web garry
2 | 0

5 | 3909

1

04.02.2010 17:52

Зарубежный Punk, Hardcore, Grunge, Alternative (Alternative) Red Hot Chili Peppers - Greatest Hits (2003) [iTunes AAC M4A, 256 kbps VBR] Web garry
2 | 0

0 | 2172

2

02.06.2009 18:51

Зарубежный Punk, Hardcore, Grunge, Alternative (Alternative) The Killers - Discography (2004-2013) [iTunes AAC M4A, 256 kbps VBR] Web garry
11 | 7

0 | 6268

4

20.06.2009 12:07

Зарубежный Punk, Hardcore, Grunge, Alternative (Alternative, Pop-Punk, Female Vocal) We Are the In Crowd - Weird Kids [Deluxe Edition] (2014) [MP3, 320 kbps] Jimmy
3 | 0

0 | 1215

3

23.04.2014 15:58

Зарубежный Punk, Hardcore, Grunge, Alternative (Alternative, Pop Punk, Emo) Fireworks - (Oh), Common Life (2014) [MP3, 320 kbps] Jimmy
1 | 0

0 | 1011

4

23.04.2014 15:55


Яндекс.Метрика powered by Sphinx


В Н И М А Н И Е
Сайт не распространяет и не хранит электронные версии произведений, а лишь бесплатно и без коммерческой выгоды (не требуя взамен платы,
SMS и т.д.) предоставляет доступ к создаваемому пользователями каталогу ссылок на торрент-файлы, которые содержат только списки хеш-сумм.
Убедительная просьба с жалобами обращаться напрямую к пользователю, разместившему торрент файл.

Вверх