Loading...
Error

Старик Хоттабыч (Геннадий Казанский ) [1956 г., семейный, фэнтези, HDRip]

Статистика раздачи
Размер:  1,37 GB   |    Зарегистрирован:  7 месяцев   |    Скачан:  5 раз
Сидов:  6  |  1 KB/s  ]   Личеров:  0  |  0 KB/s  ]

* - сиды/пиры с внешних источников

   
 
Автор Сообщение

бюргер 

17-Фев-2018 11:08

Старик Хоттабыч

Год выпуска: 1956
Жанр: семейный, фэнтези
Страна: СССР
Режиссер: Геннадий Казанский
В ролях: Николай Волков (ст.), Алёша Литвинов, Гена Худяков, Лёва Ковальчук, Майя Блинова, Ефим Копелян, Александр Лариков, Вера Романова, Евгений Весник, Анатолий Королькевич
Сюжет фильма:
12-летний московский школьник Волька, купаясь в Москве-реке, находит какой-то древний запечатанный сосуд. Мальчишеское любопытство настолько сильно, что при первом же удобном случае Волька вскрывает его, и из сосуда появляется сказочный джинн — Гассан Абдурахман ибн Хоттаб. За то, что Волька спас его от двухтысячелетнего заточения, джинн, прозванный мальчиком Хоттабычем, становится его верным слугой. Он пытается задарить мальчика, пригнав к его дому целый караван верблюдов с несметными сокровищами. Вместе они совершат увлекательный полёт в Индию на волшебном ковре-самолёте…
  • Мировая премьера: 12 июля 1957

Качество видео: HDRip
Продолжительность: 01:24:20
Формат: avi
Видео: XviD, 720x544, 1863 kbps
Аудио: русский, оригинал, AC3 5.1, 448 kbps

Код:

General
Complete name                    : D:\Starik.Hotabich.(1956).XviD.НDRip.avi
Format                           : AVI
Format/Info                      : Audio Video Interleave
File size                        : 1.37 GiB
Duration                         : 1h 24mn
Overall bit rate                 : 2 320 Kbps
Movie name                       : Starik.Hotabich.1956.XviD.avi
Director                         : Emotion
Writing application              : VirtualDubMod 1.5.10.2 (build 2540/release)
Copyright                        :

Video
ID                               : 0
Format                           : MPEG-4 Visual
Format profile                   : Streaming Video@L1
Format settings, BVOP            : Yes
Format settings, QPel            : No
Format settings, GMC             : No warppoints
Format settings, Matrix          : Default (MPEG)
Codec ID                         : XVID
Codec ID/Hint                    : XviD
Duration                         : 1h 24mn
Bit rate                         : 1 863 Kbps
Width                            : 720 pixels
Height                           : 544 pixels
Display aspect ratio             : 4/3
Frame rate                       : 23.976 fps
Resolution                       : 24 bits
Colorimetry                      : 4:2:0
Scan type                        : Progressive
Bits/(Pixel*Frame)               : 0.198
Stream size                      : 1.10 GiB (80%)
Writing library                  : XviD 64

Audio
ID                               : 1
Format                           : AC-3
Format/Info                      : Audio Coding 3
Codec ID                         : 2000
Duration                         : 1h 24mn
Bit rate mode                    : Constant
Bit rate                         : 448 Kbps
Channel(s)                       : 6 channels
Channel positions                : Front: L C R, Surround: L R, LFE
Sampling rate                    : 48.0 KHz
Stream size                      : 270 MiB (19%)
Alignment                        : Split accross interleaves
Interleave, duration             : 42 ms (1.00 video frame)
Interleave, preload duration     : 500 ms
pic pic pic
Для увеличения картинки щелкните мышкой по превью

Этот торрент недоступен для скачивания без регистрации, однако доступен по публичной magnet-ссылке (источники с публичных трекеров). Перед использованием ссылки прочтите, пожалуйста Пользовательское соглашение, а также как можно дольше оставайтесь на раздаче! Для того, чтобы скачать сам торрент-файл (который видит больше источников), а также для того, чтобы поблагодарить релизера, вам необходимо зарегистрироваться. Если регистрироваться лень - вы можете также попробовать скачать релиз по нашим партнерским ссылкам ниже. Кроме того, зарегистрированным пользователям не показывается всплывающая реклама при скачивании.

[underverse.me].t96915.torrent
Трекер: Зарегистрирован   [ 17.02.2018 11:08 ]  

Статус: проверено (by Паукан at 17.02.2018 11:14)
Поблагодарили: 2 человека
Тип торрента: публичный - доступные источники с открытых трекеров: 
Размер: 1,37 GB (занимает 0,31 DVDR, для записи нужно 1 болванка DVDR/RW)
 
 
Похожие темы
Форум Тема Автор Торрент Отв. Посл. сооб.
Наше кино [DVD / HDDVD / BD / Remux] Старик Хоттабыч (Геннадий Казанский) [1956 г., фильм-сказка, Blu-ray disc 1080p] uzi2009
7 | 0

0 | 911

6

08.04.2014 09:54

dargot54 Пол:Муж

25-Фев-2018 18:28

Спасибо!
Хорошая экранизация книги, спецэффекты, для 1956 года, на высоком уровне.

Яндекс.Метрика powered by Sphinx


В Н И М А Н И Е
Сайт не распространяет и не хранит электронные версии произведений, а лишь бесплатно и без коммерческой выгоды (не требуя взамен платы,
SMS и т.д.) предоставляет доступ к создаваемому пользователями каталогу ссылок на торрент-файлы, которые содержат только списки хеш-сумм.
Убедительная просьба с жалобами обращаться напрямую к пользователю, разместившему торрент файл.

Вверх