Loading...
Error

Возвращение Фантоцци / Fantozzi - Il ritorno (Нери Паренти) [1996 г., комедия, DVDRip] MVO

Статистика раздачи
Размер:  1,37 GB   |    Зарегистрирован:  6 месяцев   |    Скачан:  10 раз

Полного источника не было: 9 дней

Сидов:  0  |  0 KB/s  ]   Личеров:  0  |  0 KB/s  ]

* - сиды/пиры с внешних источников

   
 
Автор Сообщение

бюргер 

20-Фев-2018 13:11

Возвращение Фантоцци / Fantozzi - Il ritorno

Год выхода: 1996
Жанр: комедия
Страна: Италия
Режиссер: Нери Паренти
В ролях: Паоло Вилладжо, Милена Вукотич, Жижи Редер, Кристина Макка, Маурицио Маттиоли, Антонио Аллочча, Серджо Гибелло, Паоло Паолони, Нелло Вивие, Фабио Траверса
Сюжет фильма:
Фантоцци не может жить без приключений. В этой серии внучку Фантоцци похищают, требуя выкуп, Фантоцци бросается на ее поиски; наговаривает в сексе по телефону огромные суммы; синьора Сильвани хочет сделать пластическую операцию и под видом беременной от него, Фантоцци требует денег; бухгалтера сажают в тюрьму…
  • Мировая премьера: 20 декабря 1996

Качество видео: DVDRip
Продолжительность: 01:36:37
Формат: AVI
Видео: DivX5, 704x576, 1824 kbps
Аудио: русский, многоголосый закадровый [профессиональный], AC3 2.0, 192 kbps

Код:

General
Complete name : D:Vozvrashchenie.Fantocci.1996.DivX.DVDRip.avi
Format : AVI
Format/Info : Audio Video Interleave
File size : 1.37 GiB
Duration : 1h 36mn
Overall bit rate : 2 025 Kbps
Writing application :
Writing library : The best and REALLY easy backup tool

Video
ID : 0
Format : MPEG-4 Visual
Format settings, BVOP : Yes
Format settings, QPel : No
Format settings, GMC : No warppoints
Format settings, Matrix : Default (H.263)
Muxing mode : Packed bitstream
Codec ID : DX50
Codec ID/Hint : DivX 5
Duration : 1h 36mn
Bit rate : 1 824 Kbps
Width : 704 pixels
Height : 576 pixels
Display aspect ratio : 1.222
Frame rate : 25.000 fps
Resolution : 8 bits
Colorimetry : 4:2:0
Scan type : Progressive
Bits/(Pixel*Frame) : 0.180
Stream size : 1.23 GiB (90%)
Writing library : DivX 6.8.5 (UTC 2009-08-20)

Audio
ID : 1
Format : AC-3
Format/Info : Audio Coding 3
Codec ID : 2000
Duration : 1h 36mn
Bit rate mode : Constant
Bit rate : 192 Kbps
Channel(s) : 2 channels
Channel positions : Front: L R
Sampling rate : 48.0 KHz
Stream size : 133 MiB (9%)
Alignment : Split accross interleaves
Interleave, duration : 40 ms (1.00 video frame)
Interleave, preload duration : 500 ms
pic pic pic
Для увеличения картинки щелкните мышкой по превью

Этот торрент недоступен для скачивания без регистрации, однако доступен по публичной magnet-ссылке (источники с публичных трекеров). Перед использованием ссылки прочтите, пожалуйста Пользовательское соглашение, а также как можно дольше оставайтесь на раздаче! Для того, чтобы скачать сам торрент-файл (который видит больше источников), а также для того, чтобы поблагодарить релизера, вам необходимо зарегистрироваться. Если регистрироваться лень - вы можете также попробовать скачать релиз по нашим партнерским ссылкам ниже. Кроме того, зарегистрированным пользователям не показывается всплывающая реклама при скачивании.

[underverse.me].t97359.torrent
Трекер: Зарегистрирован   [ 20.02.2018 13:11 ]  

Статус: проверено (by Паукан at 20.02.2018 13:12)
Поблагодарили: 1 человек
Тип торрента: публичный - доступные источники с открытых трекеров: 
Размер: 1,37 GB (занимает 0,31 DVDR, для записи нужно 1 болванка DVDR/RW)
 
 
Похожие темы
Форум Тема Автор Торрент Отв. Посл. сооб.
Зарубежное кино [DVDRip, Low-Res HDRip, и т.д.] Возвращение в Брайдсхед / Brideshead Revisited (Джулиан Джаррольд) [2008, драма, мелодрама, HDRip] MVO (R5) + DVO + Sub (2 x Rus; Eng) + Original Eng Garnett
0 | 0

0 | 1854

2

17.12.2012 12:19

Зарубежное кино [DVDRip, Low-Res HDRip, и т.д.] Возвращение героя / The Last Stand (Ким Чжи Ун) [2013 г., боевик, триллер, криминал, HDRip] Dub [Лицензия] TERRAN
1 | 0

0 | 2191

96

21.04.2013 15:35

Зарубежное кино [DVDRip, Low-Res HDRip, и т.д.] Возвращение героя / The Last Stand (Ким Чжи Ун / Kim Ji Woon) [2013 г., боевик, триллер, криминал, BDRip-AVC] DUB + Original Печаль'ka
1 | 0

1 | 1655

31

21.05.2013 07:49

Зарубежное кино [DVDRip, Low-Res HDRip, и т.д.] Возвращение героя / The Last Stand (Ким Чжи Ун / Kim Ji Woon) [2013 г., боевик, триллер, криминал, BDRip-AVC] Dub 90ytr90
1 | 0

0 | 1468

29

22.04.2013 16:00

Зарубежное кино [DVDRip, Low-Res HDRip, и т.д.] Возвращение / Restitution (Ланс Коас / Lance Kawas) [2011, триллер, криминал, HDRip] MVO RG NewCinema
1 | 1

0 | 776

10

29.04.2013 08:26

Зарубежное кино [DVDRip, Low-Res HDRip, и т.д.] Возвращение волшебников: Алекс против Алекс / Битва волшебников: Алекс vs Алекс / The Wizards Return: Alex vs. Alex (Виктор Гонзалез / Victor Gonzalez) [2013 г., фэнтези, драма, комедия, приключения,... 90ytr90
2 | 0

0 | 1111

6

16.09.2013 15:09

Зарубежное кино [DVDRip, Low-Res HDRip, и т.д.] Возвращение / Comeback (Наташа Артю) [2015 г., комедия, DVDRip] VO makkol
6 | 0

0 | 928

14

26.02.2016 23:21

Зарубежное кино [DVDRip, Low-Res HDRip, и т.д.] Возвращение на родину / Возвращение домой / Kwihyang / Gwi-hyang (Чо Джонрэ) [2016 г., драма, история, WEB-DLRip] DVO + Original makkol
1 | 0

0 | 856

2

30.07.2016 14:04

T Зарубежное кино [DVDRip, Low-Res HDRip, и т.д.] Возвращение в Бургундию / Ce qui nous lie (Седрик Клапиш) [2017 г., комедия, драма, HDRip] MVO makkol
0 | 0

0 | 614

10

05.11.2017 10:57

T Зарубежное кино [DVDRip, Low-Res HDRip, и т.д.] Возвращение к матери / Retour chez ma mere (Эрик Лавэн) [2016 г., драма, комедия, HDRip] MVO (Синема УС) makkol
1 | 0

0 | 575

5

05.11.2017 11:37


Яндекс.Метрика powered by Sphinx


В Н И М А Н И Е
Сайт не распространяет и не хранит электронные версии произведений, а лишь бесплатно и без коммерческой выгоды (не требуя взамен платы,
SMS и т.д.) предоставляет доступ к создаваемому пользователями каталогу ссылок на торрент-файлы, которые содержат только списки хеш-сумм.
Убедительная просьба с жалобами обращаться напрямую к пользователю, разместившему торрент файл.

Вверх