Loading...
Error

Все только начинается / Just Getting Started (Рон Шелтон) [2017 г., боевик, комедия, BD-Remux] Dub (iTunes) + Original

Статистика раздачи
Размер:  24,74 GB   |    Зарегистрирован:  5 месяцев 25 дней   |    Скачан:  3 раза

Полного источника не было: 14 часов

Сидов:  0  |  0 KB/s  ]   Личеров:  0  |  0 KB/s  ]

* - сиды/пиры с внешних источников

   
 
Автор Сообщение

makkol Пол:Муж

21-Фев-2018 22:16

Все только начинается / Just Getting Started
«Вечеринка будет жаркой»


Год выпуска: 2017
Жанр: боевик, комедия
Производство: США [Broad Green Pictures]
Режиссер: Рон Шелтон
В ролях: Морган Фримен, Томми Ли Джонс, Рене Руссо, Гленн Хедли, Джейн Сеймур, Шерил Ли Ральф, Джо Пантолиано, Элизабет Эшли, Рэйчел Де Ла Торре, Джонни Мэтис
Сюжет фильма:
Дюк, некогда блистательный адвокат крупных преступных группировок, находясь под программой по защите свидетелей, зажигает на роскошной вилле Капри, устраивая безбашенные праздники жизни для своих гостей и превращая будни в яркий Jazz. Однажды под Рождество на виллу приезжает брутальный экс-агент ФБР Лео и переворачивает все вверх дном. Но, как оказалось, все только начинается: вслед за Лео на виллу подтягиваются парни из мафии, имеющие старый зуб на Дюка и Лео. Вечеринка будет жаркой!

  • Мировая премьера: 1 декабря 2017
  • Российская премьера: 11 января 2018


Качество видео: BD-Remux

Продолжительность: 01:30:53
Формат: MKV
Видео: MPEG-4 AVC, 01:30:53, 23.976 fps, 34.8 Mbps
Аудио #1: русский, дублированный (iTunes), AC3 5.1, 48 kHz, 384 kbps
Аудио #2: английский, оригинал, DTS-HD MA 5.1, 48 kHz, 3755 kbps
Субтитры: английские вшитые отключаемые

Код:

Format : Matroska
Format version : Version 4 / Version 2
File size : 24.7 GiB
Duration : 1 h 33 min
Overall bit rate mode : Variable
Overall bit rate : 38.1 Mb/s
Encoded date : UTC 2018-02-21 19:38:25
Writing application : mkvmerge v20.0.0 ('I Am The Sun') 64-bit
Writing library : libebml v1.3.5 + libmatroska v1.4.8

Video
ID : 1
Format : AVC
Format/Info : Advanced Video Codec
Format profile : High@L4.1
Format settings : CABAC / 4 Ref Frames
Format settings, CABAC : Yes
Format settings, ReFrames : 4 frames
Codec ID : V_MPEG4/ISO/AVC
Duration : 1 h 30 min
Bit rate mode : Variable
Bit rate : 34.8 Mb/s
Maximum bit rate : 37.0 Mb/s
Width : 1 920 pixels
Height : 1 080 pixels
Display aspect ratio : 16:9
Frame rate mode : Constant
Frame rate : 23.976 (24000/1001) FPS
Color space : YUV
Chroma subsampling : 4:2:0
Bit depth : 8 bits
Scan type : Progressive
Bits/(Pixel*Frame) : 0.700
Stream size : 22.1 GiB (89%)
Language : English
Default : Yes
Forced : No

Audio #1
ID : 2
Format : AC-3
Format/Info : Audio Coding 3
Codec ID : A_AC3
Duration : 1 h 33 min
Bit rate mode : Constant
Bit rate : 384 kb/s
Channel(s) : 6 channels
Channel positions : Front: L C R, Side: L R, LFE
Sampling rate : 48.0 kHz
Frame rate : 31.250 FPS (1536 SPF)
Bit depth : 16 bits
Compression mode : Lossy
Stream size : 256 MiB (1%)
Title : iTunes
Language : Russian
Service kind : Complete Main
Default : Yes
Forced : No

Audio #2
ID : 3
Format : DTS
Format/Info : Digital Theater Systems
Format profile : MA / Core
Codec ID : A_DTS
Duration : 1 h 30 min
Bit rate mode : Variable / Constant
Bit rate : 3 755 kb/s / 1 509 kb/s
Channel(s) : 6 channels
Channel positions : Front: L C R, Side: L R, LFE
Sampling rate : 48.0 kHz
Frame rate : 93.750 FPS (512 SPF)
Bit depth : 24 bits
Compression mode : Lossless / Lossy
Stream size : 2.38 GiB (10%)
Title : Original
Language : English
Default : No
Forced : No

Text
ID : 4
Format : UTF-8
Codec ID : S_TEXT/UTF8
Codec ID/Info : UTF-8 Plain Text
Duration : 1 h 28 min
Bit rate : 79 b/s
Count of elements : 1543
Stream size : 51.3 KiB (0%)
Title : Full
Language : English
Default : No
Forced : No

Menu
00:00:00.000 : en:Chapter 1
00:06:37.647 : en:Chapter 2
00:11:13.506 : en:Chapter 3
00:15:24.131 : en:Chapter 4
00:22:28.722 : en:Chapter 5
00:28:59.195 : en:Chapter 6
00:34:12.467 : en:Chapter 7
00:40:40.646 : en:Chapter 8
00:49:58.495 : en:Chapter 9
00:54:15.377 : en:Chapter 10
01:00:56.277 : en:Chapter 11
01:05:43.022 : en:Chapter 12
01:12:51.367 : en:Chapter 13
01:18:13.897 : en:Chapter 14
01:22:24.272 : en:Chapter 15
01:25:26.788 : en:Chapter 16
Релиз:

picpicpicpicpic
Для увеличения картинки щелкните мышкой по превью

Этот торрент недоступен для скачивания без регистрации, однако доступен по публичной magnet-ссылке (источники с публичных трекеров). Перед использованием ссылки прочтите, пожалуйста Пользовательское соглашение, а также как можно дольше оставайтесь на раздаче! Для того, чтобы скачать сам торрент-файл (который видит больше источников), а также для того, чтобы поблагодарить релизера, вам необходимо зарегистрироваться. Если регистрироваться лень - вы можете также попробовать скачать релиз по нашим партнерским ссылкам ниже. Кроме того, зарегистрированным пользователям не показывается всплывающая реклама при скачивании.

[underverse.me].t97535.torrent
Трекер: Зарегистрирован   [ 21.02.2018 22:16 ]  

Статус: * не проверено
Поблагодарили: пока никто не поблагодарил...
Тип торрента: публичный - доступные источники с открытых трекеров: 
Размер: 24,74 GB (занимает 5,65 DVDR, для записи нужно 6 болванок DVDR/RW)
 
 
Похожие темы
Форум Тема Автор Торрент Отв. Посл. сооб.
T Зарубежное кино [DVDRip, Low-Res HDRip, и т.д.] Все только начинается / Just Getting Started (Рон Шелтон / Ron Shelton) [2017 г., боевик, комедия, WEB-DLRip] DVO (HiWayGrope) 90ytr90
9 | 2

0 | 445

10

18.02.2018 09:41

T Зарубежное кино [DVDRip, Low-Res HDRip, и т.д.] Все только начинается / Just Getting Started (Рон Шелтон / Ron Shelton) [2017 г., боевик, комедия, HDRip] MVO (HDrezka Studio) + Original (Eng) 90ytr90
9 | 4

0 | 271

5

20.02.2018 07:44

Зарубежное кино [DVDRip, Low-Res HDRip, и т.д.] Все только начинается / Just Getting Started (Рон Шелтон / Ron Shelton) [2017 г., боевик, комедия, BDRip] Dub 90ytr90
325 | 7

0 | 328

7

07.07.2018 09:49

Зарубежное кино [DVDRip, Low-Res HDRip, и т.д.] Все только начинается / Just Getting Started (Рон Шелтон / Ron Shelton) [2017 г., боевик, комедия, BDRip] Dub 90ytr90
18 | 3

0 | 199

6

07.07.2018 11:58

Зарубежное кино [DVDRip, Low-Res HDRip, и т.д.] Все только начинается / Just Getting Started (Рон Шелтон / Ron Shelton) [2017 г., боевик, комедия, BDRip-AVC] Dub + Original (Eng) + Sub (Eng) 90ytr90
37 | 4

0 | 141

4

11.07.2018 14:28

T Зарубежное кино [HDDVDRip / BDRip / WEB-DL / HDTV 1080/720р] Все только начинается / Just Getting Started (Рон Шелтон / Ron Shelton) [2017 г., боевик, комедия, WEB-DLRip 720p] DVO (HiWayGrope) 90ytr90
5 | 2

0 | 443

11

18.02.2018 09:42

Зарубежное кино [HDDVDRip / BDRip / WEB-DL / HDTV 1080/720р] Все только начинается / Just Getting Started (Рон Шелтон / Ron Shelton) [2017 г., боевик, комедия, BDRip 720p] MVO (HDrezka Studio) + Original (Eng) + Sub (Eng) 90ytr90
14 | 4

0 | 424

7

20.02.2018 07:40

Зарубежное кино [HDDVDRip / BDRip / WEB-DL / HDTV 1080/720р] Все только начинается / Just Getting Started (Рон Шелтон / Ron Shelton) [2017 г., боевик, комедия, BDRip 1080p] Dub + MVO (HDRezka Studio) + Original (Eng) + Sub (Eng) 90ytr90
75 | 6

0 | 200

5

07.07.2018 09:51

Зарубежное кино [HDDVDRip / BDRip / WEB-DL / HDTV 1080/720р] Все только начинается / Just Getting Started (Рон Шелтон / Ron Shelton) [2017 г., боевик, комедия, BDRip 720p] Dub + MVO (HDRezka Studio) + Original (Eng) + Sub (Eng) 90ytr90
31 | 3

0 | 195

4

07.07.2018 09:52


Яндекс.Метрика powered by Sphinx


В Н И М А Н И Е
Сайт не распространяет и не хранит электронные версии произведений, а лишь бесплатно и без коммерческой выгоды (не требуя взамен платы,
SMS и т.д.) предоставляет доступ к создаваемому пользователями каталогу ссылок на торрент-файлы, которые содержат только списки хеш-сумм.
Убедительная просьба с жалобами обращаться напрямую к пользователю, разместившему торрент файл.

Вверх