Loading...
Error

Фердинанд / Ferdinand (Карлос Салдана) [2017 г., семейный, комедия, мультфильм, BDRip 720p] Dub (звук с TS)

Статистика раздачи
Размер:  4,68 GB   |    Зарегистрирован:  5 месяцев 19 дней   |    Скачан:  26 раз

Полного источника не было: 5 часов

Сидов:  0  |  0 KB/s  ]   Личеров:  0  |  0 KB/s  ]

* - сиды/пиры с внешних источников

   
 
Автор Сообщение

makkol Пол:Муж

27-Фев-2018 21:53

Фердинанд / Ferdinand
«Создан для борьбы. Рождён для любви»


Год выпуска: 2017
Жанр: семейный, комедия, мультфильм
Производство: США [Blue Sky Studios, Davis Entertainment, Twentieth Century Fox Animation]
Режиссер: Карлос Салдана
Роли озвучивали: Джон Сина, Кейт МакКиннон, Дэвид Теннант, Бобби Каннавейл, Энтони Андерсон, Джек Гор, Джет Юргенсмейер, Найл Диас, Колин Х. Мерфи, Карлос Салдана
Сюжет фильма:
Фердинанд — самый добродушный бык во всей Испании. Несмотря на внушительные размеры и недюжинную силу, он с детства предпочитал сидеть на лужайке и любоваться цветами вместо того, чтобы бодаться с другими быками. По нелепой случайности Фердинанд был выбран среди других соплеменников для участия в бое быков в Мадриде.

  • Мировая премьера: 11 ноября 2017
  • Российская премьера: 21 декабря 2017


Качество видео: BDRip 720p

Продолжительность: 01:48:40
Формат: MKV
Видео: MPEG-4 AVC, 1280x536 (2.40:1), 23.976 fps, 5975 kbps
Аудио: русский, дублированный (звук с TS), AC3 2.0, 48 kHz, 192 kbps

Код:

Формат : Matroska
Версия формата : Version 2
Размер файла : 4,68 Гбайт
Продолжительность : 1 ч. 48 м.
Режим общего битрейта : Переменный
Общий поток : 6169 Кбит/сек
Дата кодирования : UTC 2018-02-27 17:04:35
Программа кодирования : mkvmerge v8.3.0 ('Over the Horizon') 64bit
Библиотека кодирования : libebml v1.3.1 + libmatroska v1.4.2

Видео
Идентификатор : 1
Формат : AVC
Формат/Информация : Advanced Video Codec
Профиль формата : High@L4.1
Параметр CABAC формата : Да
Параметр ReFrames формата : 4 кадра
Идентификатор кодека : V_MPEG4/ISO/AVC
Продолжительность : 1 ч. 48 м.
Вид битрейта : Переменный
Битрейт : 5975 Кбит/сек
Максимальный битрейт : 6600 Кбит/сек
Ширина : 1280 пикселей
Высота : 536 пикселей
Соотношение сторон : 2,40:1
Режим частоты кадров : Постоянный
Частота кадров : 23,976 (24000/1001) кадра/сек
Стандарт вещания : Component
Цветовое пространство : YUV
Субдискретизация насыщенности : 4:2:0
Битовая глубина : 8 бит
Тип развёртки : Прогрессивная
Бит/(Пиксели*Кадры) : 0.356
Размер потока : 4,44 Гбайт (95%)
Default : Да
Forced : Нет
Цветовой диапазон : Limited
Основные цвета : BT.709
Характеристики трансфера : BT.709
Коэффициенты матрицы : BT.709

Аудио
Идентификатор : 2
Формат : AC-3
Формат/Информация : Audio Coding 3
Расширение режима : CM (complete main)
Параметр Endianness формата : Big
Идентификатор кодека : A_AC3
Продолжительность : 1 ч. 48 м.
Вид битрейта : Постоянный
Битрейт : 192 Кбит/сек
Каналы : 2 канала
Расположение каналов : Front: L R
Частота : 48,0 КГц
Частота кадров : 31,250 кадров/сек (1536 spf)
Метод сжатия : С потерями
Размер потока : 149 Мбайт (3%)
Default : Да
Forced : Нет


picpicpicpicpic
Для увеличения картинки щелкните мышкой по превью

Этот торрент недоступен для скачивания без регистрации, однако доступен по публичной magnet-ссылке (источники с публичных трекеров). Перед использованием ссылки прочтите, пожалуйста Пользовательское соглашение, а также как можно дольше оставайтесь на раздаче! Для того, чтобы скачать сам торрент-файл (который видит больше источников), а также для того, чтобы поблагодарить релизера, вам необходимо зарегистрироваться. Если регистрироваться лень - вы можете также попробовать скачать релиз по нашим партнерским ссылкам ниже. Кроме того, зарегистрированным пользователям не показывается всплывающая реклама при скачивании.

[underverse.me].t98200.torrent
Трекер: Зарегистрирован   [ 27.02.2018 21:53 ]  

Статус: поглощено (by 90ytr90 at 16.03.2018 22:29)
Поблагодарили: пока никто не поблагодарил...
Тип торрента: публичный - доступные источники с открытых трекеров: 
Размер: 4,68 GB (занимает 1,07 DVDR, для записи нужно 2 болванки DVDR/RW)
 
 
Похожие темы
Форум Тема Автор Торрент Отв. Посл. сооб.
Зарубежные мультфильмы Фердинанд / Ferdinand (Карлос Салдана / Carlos Saldanha) [2017 г., семейный, комедия, мультфильм, BDRip-AVC] Dub + Original (Eng) + Sub (Rus, Eng) 90ytr90
840 | 9

0 | 1716

53

16.03.2018 15:31

Зарубежные мультфильмы Фердинанд / Ferdinand (Карлос Салдана / Carlos Saldanha) [2017 г., семейный, комедия, мультфильм, BDRip] Dub 90ytr90
94 | 3

0 | 778

19

16.03.2018 22:35

Зарубежные мультфильмы Фердинанд / Ferdinand (Карлос Салдана / Carlos Saldanha) [2017 г., семейный, комедия, мультфильм, BDRip-AVC] Dub + Sub (Rus) 90ytr90
0 | 0

0 | 462

17

15.03.2018 18:10

Зарубежные мультфильмы Фердинанд / Ferdinand (Карлос Салдана / Carlos Saldanha) [2017 г., семейный, комедия, мультфильм, BDRip] Dub 90ytr90
3297 | 28

0 | 4042

44

15.03.2018 18:06

Мультфильмы [DVD / HDDVD / BD / Remux] Фердинанд / Ferdinand (Карлос Салдана / Carlos Saldanha) [2017 г., семейный, комедия, мультфильм, BDRemux 1080p] 2xDub (Rus, Ukr) + Original (Eng) + Sub (Rus, Ukr, Eng) 90ytr90
15 | 3

0 | 535

11

16.03.2018 23:09

Мультфильмы [HDDVDRip / BDRip / WEB-DL / HDTV 1080/720р] Фердинанд / Ferdinand (Карлос Салдана / Carlos Saldanha) [2017 г., семейный, комедия, мультфильм, BDRip 720p] 2xDub (Rus, Ukr) + Original (Eng) + Sub (Rus, Ukr, Eng) 90ytr90
408 | 7

0 | 1094

33

16.03.2018 03:47

Мультфильмы [HDDVDRip / BDRip / WEB-DL / HDTV 1080/720р] Фердинанд / Ferdinand (Карлос Салдана / Carlos Saldanha) [2017 г., семейный, комедия, мультфильм, BDRip 1080p] Dub + Sub (Rus) 90ytr90
658 | 16

0 | 1380

39

16.03.2018 15:29

Мультфильмы [HDDVDRip / BDRip / WEB-DL / HDTV 1080/720р] Фердинанд / Ferdinand (Карлос Салдана / Carlos Saldanha) [2017 г., семейный, комедия, мультфильм, BDRip 1080p] 2xDub (Rus, Ukr) + Original (Eng) + Sub (Rus, Eng) 90ytr90
83 | 4

0 | 1017

30

15.03.2018 18:18

Мультфильмы [HDDVDRip / BDRip / WEB-DL / HDTV 1080/720р] Фердинанд / Ferdinand (Карлос Салдана / Carlos Saldanha) [2017 г., семейный, комедия, мультфильм, BDRip 720p] 2xDub (Rus, Ukr) + Original (Eng) + Sub (Rus, Eng) 90ytr90
90 | 3

0 | 424

6

15.03.2018 18:18

16-Мар-2018 22:29

Топик был перенесен из форума Мультфильмы [HDDVDRip / BDRip / WEB-DL / HDTV 1080/720р] в форум Для поглощенных раздач

Причина переноса: http://underverse.name/viewtopic.php?t=98043
90ytr90
 

Яндекс.Метрика powered by Sphinx


В Н И М А Н И Е
Сайт не распространяет и не хранит электронные версии произведений, а лишь бесплатно и без коммерческой выгоды (не требуя взамен платы,
SMS и т.д.) предоставляет доступ к создаваемому пользователями каталогу ссылок на торрент-файлы, которые содержат только списки хеш-сумм.
Убедительная просьба с жалобами обращаться напрямую к пользователю, разместившему торрент файл.

Вверх