Loading...
Error

(Alternative Rock) Би-2 - Лучшее (2CD) (2010) [FLAC (Image+.Cue), Lossless]

Статистика раздачи
Размер:  1,06 GB   |    Зарегистрирован:  6 месяцев   |    Скачан:  17 раз

Полного источника не было: 2 дня 19 часов

Сидов:  0  |  0 KB/s  ]   Личеров:  0  |  0 KB/s  ]

* - сиды/пиры с внешних источников

   
 
Автор Сообщение

Бишеп Пол:Муж

28-Фев-2018 09:01

Би-2 - Лучшее

Жанр: Alternative Rock
Год выпуска: 2010
Источник: CD
Производитель диска: Star Mark - 25261-1/2, 4607147899236
Аудиокодек: FLAC
Тип рипа: Image+.CUE
Битрейт аудио: lossless
Продолжительность: 02:39:18

Треклист:
01. Реки Любви
02. Шамбала
03. Достучаться до небес
04. Мой рок-н-ролл
05. Полковнику никто не пишет
06. Моя любовь
07. Научи меня быть счастливым
08. Серебро
09. Волки
10. Скользкие улицы
11. Медленная звезда
12. Песок
13. Варвара
14. Дурочка
15. Революция
16. Шар Земной
17. Из-за меня

Код:

Exact Audio Copy V1.0 beta 3 from 29. August 2011

Отчёт EAC об извлечении, выполненном 9. ноября 2014, 21:33

Би - 2 / Лучшее [CD 1]

Дисковод: Optiarc DVD RW AD-5200S   Adapter: 3  ID: 0

Режим чтения                 : Достоверность
Использование точного потока : Да
Отключение кэша аудио        : Да
Использование указателей C2  : Нет

Коррекция смещения при чтении                     : 48
Способность читать области Lead-in и Lead-out     : Нет
Заполнение пропущенных сэмплов тишиной            : Да
Удаление блоков с тишиной в начале и конце        : Нет
При вычислениях CRC использовались нулевые сэмплы : Да
Интерфейс                                         : Установленный внешний ASPI-интерфейс

Выходной формат          : Пользовательский кодировщик
Выбранный битрейт        : 768 kBit/s
Качество                 : Высокий
Добавление ID3-тега      : Нет
Утилита сжатия           : C:\Program Files\Exact Audio Copy\FLAC\FLAC.EXE
Дополнительные параметры : -6 -V -T "ARTIST=%artist%" -T "TITLE=%title%" -T "ALBUM=%albumtitle%" -T "DATE=%year%" -T "TRACKNUMBER=%tracknr%" -T "GENRE=%genre%" -T "COMMENT=%comment%" -T "BAND=%albuminterpret%" -T "ALBUMARTIST=%albuminterpret%" -T "COMPOSER=%composer%" %haslyrics%--tag-from-file=LYRICS="%lyricsfile%"%haslyrics% -T "DISCNUMBER=%cdnumber%" -T "TOTALDISCS=%totalcds%" -T "TOTALTRACKS=%numtracks%" %hascover%--picture="%coverfile%"%hascover% %source% -o %dest%

TOC извлечённого CD

     Трек |   Старт  | Длительность | Начальный сектор | Конечный сектор
    ---------------------------------------------------------------------
       1  |  0:00.00 |    4:07.06   |           0      |      18530     
       2  |  4:07.06 |    3:34.71   |       18531      |      34651     
       3  |  7:42.02 |    5:29.59   |       34652      |      59385     
       4  | 13:11.61 |    6:44.07   |       59386      |      89692     
       5  | 19:55.68 |    4:52.02   |       89693      |     111594     
       6  | 24:47.70 |    4:54.06   |      111595      |     133650     
       7  | 29:42.01 |    3:49.43   |      133651      |     150868     
       8  | 33:31.44 |    4:35.58   |      150869      |     171551     
       9  | 38:07.27 |    3:57.04   |      171552      |     189330     
      10  | 42:04.31 |    5:38.68   |      189331      |     214748     
      11  | 47:43.24 |    5:48.06   |      214749      |     240854     
      12  | 53:31.30 |    4:14.72   |      240855      |     259976     
      13  | 57:46.27 |    4:59.59   |      259977      |     282460     
      14  | 62:46.11 |    4:05.00   |      282461      |     300835     
      15  | 66:51.11 |    3:36.68   |      300836      |     317103     
      16  | 70:28.04 |    4:34.42   |      317104      |     337695     
      17  | 75:02.46 |    4:54.74   |      337696      |     359819     

Характеристики диапазона извлечения и сообщения об ошибках

Выбранный диапазон

     Имя файла F:\LOSSLESS\Scans\Би - 2 - Лучшее [CD 1].wav

     Пиковый уровень 85.9 %
     Скорость извлечения 4.6 X
     Качество диапазона 99.9 %
     CRC теста F3ED4945
     CRC копии F3ED4945
     Копирование... OK

Ошибок не произошло

 
AccurateRip: сводка
 
Трек  1  отсутствует в базе данных
Трек  2  отсутствует в базе данных
Трек  3  отсутствует в базе данных
Трек  4  отсутствует в базе данных
Трек  5  отсутствует в базе данных
Трек  6  отсутствует в базе данных
Трек  7  отсутствует в базе данных
Трек  8  отсутствует в базе данных
Трек  9  отсутствует в базе данных
Трек 10  отсутствует в базе данных
Трек 11  отсутствует в базе данных
Трек 12  отсутствует в базе данных
Трек 13  отсутствует в базе данных
Трек 14  отсутствует в базе данных
Трек 15  отсутствует в базе данных
Трек 16  отсутствует в базе данных
Трек 17  отсутствует в базе данных
 
Ни одного трека нет в базе AccurateRip

Конец отчёта

==== Контрольная сумма отчёта 11280B66114738587BB7026AEAFBC6F27E756DFF51DF10551D68A02F77FC8B07 ====

Код:

REM GENRE Rock
REM DATE 2010
REM DISCID 0212BD11
REM COMMENT "ExactAudioCopy v1.0b3"
PERFORMER "Би - 2"
TITLE "Лучшее [CD 1]"
FILE "Би - 2 - Лучшее [CD 1].flac" WAVE
  TRACK 01 AUDIO
    TITLE "Реки Любви"
    PERFORMER "Би-2"
    FLAGS DCP
    INDEX 01 00:00:00
  TRACK 02 AUDIO
    TITLE "Шамбала"
    PERFORMER "Би-2"
    FLAGS DCP
    INDEX 01 04:07:06
  TRACK 03 AUDIO
    TITLE "Достучаться до небес"
    PERFORMER "Би-2"
    FLAGS DCP
    INDEX 01 07:42:02
  TRACK 04 AUDIO
    TITLE "Мой рок-н-ролл"
    PERFORMER "Би-2"
    FLAGS DCP
    INDEX 01 13:11:61
  TRACK 05 AUDIO
    TITLE "Полковнику никто не пишет"
    PERFORMER "Би-2"
    FLAGS DCP
    INDEX 01 19:55:68
  TRACK 06 AUDIO
    TITLE "Моя любовь"
    PERFORMER "Би-2"
    FLAGS DCP
    INDEX 01 24:47:70
  TRACK 07 AUDIO
    TITLE "Научи меня быть счастливым"
    PERFORMER "Би-2"
    FLAGS DCP
    INDEX 01 29:42:01
  TRACK 08 AUDIO
    TITLE "Серебро"
    PERFORMER "Би-2"
    FLAGS DCP
    INDEX 01 33:31:44
  TRACK 09 AUDIO
    TITLE "Волки"
    PERFORMER "Би-2"
    FLAGS DCP
    INDEX 01 38:07:27
  TRACK 10 AUDIO
    TITLE "Скользкие улицы"
    PERFORMER "Би-2"
    FLAGS DCP
    INDEX 01 42:04:31
  TRACK 11 AUDIO
    TITLE "Медленная звезда"
    PERFORMER "Би-2"
    FLAGS DCP
    INDEX 01 47:43:24
  TRACK 12 AUDIO
    TITLE "Песок"
    PERFORMER "Би-2"
    FLAGS DCP
    INDEX 01 53:31:30
  TRACK 13 AUDIO
    TITLE "Варвара"
    PERFORMER "Би-2"
    FLAGS DCP
    INDEX 01 57:46:27
  TRACK 14 AUDIO
    TITLE "Дурочка"
    PERFORMER "Би-2"
    FLAGS DCP
    INDEX 01 62:46:11
  TRACK 15 AUDIO
    TITLE "Революция"
    PERFORMER "Би-2"
    FLAGS DCP
    INDEX 01 66:51:11
  TRACK 16 AUDIO
    TITLE "Шар Земной"
    PERFORMER "Би-2"
    FLAGS DCP
    INDEX 01 70:28:04
  TRACK 17 AUDIO
    TITLE "Из-за меня"
    PERFORMER "Би-2"
    FLAGS DCP
    INDEX 01 75:02:46
Треклист:
01. Вечная призрачная встречная
02. Муза
03. Мяу кисс ми
04. Радиовьетнам
05. Прощай Берлин
06. Невероятная история
07. Никто не придет
08. Феллини
09. Зажигать
10. Flamenco
11. Держаться за воздух
12. Все, как он сказал
13. Белый лист
14. Bowie
15. Он плохо кончил
16. Падает Снег
17. Нечетный воин

Код:

Exact Audio Copy V1.0 beta 3 from 29. August 2011

Отчёт EAC об извлечении, выполненном 9. ноября 2014, 22:11

Би - 2 / Лучшее [CD 2]

Дисковод: Optiarc DVD RW AD-5200S   Adapter: 3  ID: 0

Режим чтения                 : Достоверность
Использование точного потока : Да
Отключение кэша аудио        : Да
Использование указателей C2  : Нет

Коррекция смещения при чтении                     : 48
Способность читать области Lead-in и Lead-out     : Нет
Заполнение пропущенных сэмплов тишиной            : Да
Удаление блоков с тишиной в начале и конце        : Нет
При вычислениях CRC использовались нулевые сэмплы : Да
Интерфейс                                         : Установленный внешний ASPI-интерфейс

Выходной формат          : Пользовательский кодировщик
Выбранный битрейт        : 768 kBit/s
Качество                 : Высокий
Добавление ID3-тега      : Нет
Утилита сжатия           : C:\Program Files\Exact Audio Copy\FLAC\FLAC.EXE
Дополнительные параметры : -6 -V -T "ARTIST=%artist%" -T "TITLE=%title%" -T "ALBUM=%albumtitle%" -T "DATE=%year%" -T "TRACKNUMBER=%tracknr%" -T "GENRE=%genre%" -T "COMMENT=%comment%" -T "BAND=%albuminterpret%" -T "ALBUMARTIST=%albuminterpret%" -T "COMPOSER=%composer%" %haslyrics%--tag-from-file=LYRICS="%lyricsfile%"%haslyrics% -T "DISCNUMBER=%cdnumber%" -T "TOTALDISCS=%totalcds%" -T "TOTALTRACKS=%numtracks%" %hascover%--picture="%coverfile%"%hascover% %source% -o %dest%

TOC извлечённого CD

     Трек |   Старт  | Длительность | Начальный сектор | Конечный сектор
    ---------------------------------------------------------------------
       1  |  0:00.00 |    5:13.69   |           0      |      23543     
       2  |  5:13.69 |    3:15.73   |       23544      |      38241     
       3  |  8:29.67 |    3:52.16   |       38242      |      55657     
       4  | 12:22.08 |    4:12.47   |       55658      |      74604     
       5  | 16:34.55 |    5:15.46   |       74605      |      98275     
       6  | 21:50.26 |    5:16.18   |       98276      |     121993     
       7  | 27:06.44 |    5:15.60   |      121994      |     145678     
       8  | 32:22.29 |    4:38.73   |      145679      |     166601     
       9  | 37:01.27 |    5:23.09   |      166602      |     190835     
      10  | 42:24.36 |    4:15.02   |      190836      |     209962     
      11  | 46:39.38 |    5:57.01   |      209963      |     236738     
      12  | 52:36.39 |    3:58.45   |      236739      |     254633     
      13  | 56:35.09 |    4:29.04   |      254634      |     274812     
      14  | 61:04.13 |    4:57.13   |      274813      |     297100     
      15  | 66:01.26 |    3:13.58   |      297101      |     311633     
      16  | 69:15.09 |    4:05.46   |      311634      |     330054     
      17  | 73:20.55 |    6:00.09   |      330055      |     357063     

Характеристики диапазона извлечения и сообщения об ошибках

Выбранный диапазон

     Имя файла F:\LOSSLESS\Scans\Би - 2 - Лучшее [CD 2].wav

     Пиковый уровень 100.0 %
     Скорость извлечения 4.6 X
     Качество диапазона 100.0 %
     CRC теста C5C46A4F
     CRC копии C5C46A4F
     Копирование... OK

Ошибок не произошло

 
AccurateRip: сводка
 
Трек  1  отсутствует в базе данных
Трек  2  отсутствует в базе данных
Трек  3  отсутствует в базе данных
Трек  4  отсутствует в базе данных
Трек  5  отсутствует в базе данных
Трек  6  отсутствует в базе данных
Трек  7  отсутствует в базе данных
Трек  8  отсутствует в базе данных
Трек  9  отсутствует в базе данных
Трек 10  отсутствует в базе данных
Трек 11  отсутствует в базе данных
Трек 12  отсутствует в базе данных
Трек 13  отсутствует в базе данных
Трек 14  отсутствует в базе данных
Трек 15  отсутствует в базе данных
Трек 16  отсутствует в базе данных
Трек 17  отсутствует в базе данных
 
Ни одного трека нет в базе AccurateRip

Конец отчёта

==== Контрольная сумма отчёта 77DA8D106625AF9750AEEE3740CB18AFB5D2CD4A223B575C50D3079A7A93845F ====

Код:

REM GENRE Rock
REM DATE 2010
REM DISCID F4129811
REM COMMENT "ExactAudioCopy v1.0b3"
PERFORMER "Би - 2"
TITLE "Лучшее [CD 2]"
FILE "Би - 2 - Лучшее [CD 2].flac" WAVE
  TRACK 01 AUDIO
    TITLE "Вечная призрачная встречная"
    PERFORMER "Би-2 "
    FLAGS DCP
    INDEX 01 00:00:00
  TRACK 02 AUDIO
    TITLE "Муза"
    PERFORMER "Би-2 "
    FLAGS DCP
    INDEX 00 05:11:69
    INDEX 01 05:13:69
  TRACK 03 AUDIO
    TITLE "Мяу кисс ми"
    PERFORMER "Би-2 "
    FLAGS DCP
    INDEX 00 08:27:67
    INDEX 01 08:29:67
  TRACK 04 AUDIO
    TITLE "Радиовьетнам"
    PERFORMER "Би-2 "
    FLAGS DCP
    INDEX 00 12:20:08
    INDEX 01 12:22:08
  TRACK 05 AUDIO
    TITLE "Прощай Берлин"
    PERFORMER "Би-2 "
    FLAGS DCP
    INDEX 00 16:32:55
    INDEX 01 16:34:55
  TRACK 06 AUDIO
    TITLE "Невероятная история"
    PERFORMER "Би-2 "
    FLAGS DCP
    INDEX 00 21:48:26
    INDEX 01 21:50:26
  TRACK 07 AUDIO
    TITLE "Никто не придет"
    PERFORMER "Би-2 "
    FLAGS DCP
    INDEX 00 27:04:44
    INDEX 01 27:06:44
  TRACK 08 AUDIO
    TITLE "Феллини"
    PERFORMER "Би-2 "
    FLAGS DCP
    INDEX 00 32:20:29
    INDEX 01 32:22:29
  TRACK 09 AUDIO
    TITLE "Зажигать"
    PERFORMER "Би-2 "
    FLAGS DCP
    INDEX 00 36:59:27
    INDEX 01 37:01:27
  TRACK 10 AUDIO
    TITLE "Flamenco"
    PERFORMER "Би-2 "
    FLAGS DCP
    INDEX 00 42:22:36
    INDEX 01 42:24:36
  TRACK 11 AUDIO
    TITLE "Держаться за воздух"
    PERFORMER "Би-2 "
    FLAGS DCP
    INDEX 00 46:37:38
    INDEX 01 46:39:38
  TRACK 12 AUDIO
    TITLE "Все, как он сказал"
    PERFORMER "Би-2 "
    FLAGS DCP
    INDEX 00 52:34:39
    INDEX 01 52:36:39
  TRACK 13 AUDIO
    TITLE "Белый лист"
    PERFORMER "Би-2 "
    FLAGS DCP
    INDEX 00 56:33:09
    INDEX 01 56:35:09
  TRACK 14 AUDIO
    TITLE "Bowie"
    PERFORMER "Би-2 "
    FLAGS DCP
    INDEX 00 61:02:13
    INDEX 01 61:04:13
  TRACK 15 AUDIO
    TITLE "Он плохо кончил"
    PERFORMER "Би-2 "
    FLAGS DCP
    INDEX 00 65:59:26
    INDEX 01 66:01:26
  TRACK 16 AUDIO
    TITLE "Падает Снег"
    PERFORMER "Би-2 "
    FLAGS DCP
    INDEX 00 69:13:09
    INDEX 01 69:15:09
  TRACK 17 AUDIO
    TITLE "Нечетный воин "
    PERFORMER "Би-2 "
    FLAGS DCP
    INDEX 00 73:18:55
    INDEX 01 73:20:55

Этот торрент недоступен для скачивания без регистрации, однако доступен по публичной magnet-ссылке (источники с публичных трекеров). Перед использованием ссылки прочтите, пожалуйста Пользовательское соглашение, а также как можно дольше оставайтесь на раздаче! Для того, чтобы скачать сам торрент-файл (который видит больше источников), а также для того, чтобы поблагодарить релизера, вам необходимо зарегистрироваться. Если регистрироваться лень - вы можете также попробовать скачать релиз по нашим партнерским ссылкам ниже. Кроме того, зарегистрированным пользователям не показывается всплывающая реклама при скачивании.

[underverse.me].t98229.torrent
Трекер: Зарегистрирован   [ 28.02.2018 09:01 ]  

Статус: проверено (by Бишеп at 28.02.2018 09:02)
Поблагодарили: пока никто не поблагодарил...
Тип торрента: публичный - доступные источники с открытых трекеров: 
Размер: 1,06 GB (занимает 0,24 DVDR, для записи нужно 1 болванка DVDR/RW)
 
 
Похожие темы
Форум Тема Автор Торрент Отв. Посл. сооб.
Зарубежная Pop Музыка (Alternative Pop, Neo Soul, Indie) Amanda Jenssen - Sanger fran on (2015) [MP3, 320 kbps] 90ytr90
1 | 0

0 | 1212

3

23.03.2015 19:02

Зарубежная Pop Музыка (Alternative, Indie) Anna of the North - Lovers (2017) [MP3, 320 kbps CBR] Darkferse
3 | 0

0 | 867

4

13.09.2017 08:47

Зарубежная Pop Музыка (Alternative, Pop, Soul) Plan B - Heaven Before All Hell Breaks Loose (2018) [MP3, 320 kbps CBR] 90ytr90
35 | 0

0 | 353

3

03.06.2018 05:52

Зарубежный Hard, Progressive, Soft, Melodic, AOR, Folk, Classic Rock (Alternative Rock / Progressive Rock) Muse - The 2nd Law (2012) [MP3, 320 kbps] Jimmy
0 | 0

0 | 1429

13

27.09.2012 04:30

Зарубежный Black, Death, Heavy, Thrash, Power, Folk, Gothic Metal (Alternative Metal) This Tragic Day - This Tragic Day (2012) [MP3, 320 kbps] NiiggazCPT
1 | 0

0 | 1597

4

28.10.2012 07:21

Зарубежный Punk, Hardcore, Grunge, Alternative (Alternative) Green Day - Greatest Hits: God's Favorite Band (2017) [iTunes AAC M4A, 256 kbps VBR] Web garry
1 | 0

5 | 3954

1

04.02.2010 17:52

Зарубежный Punk, Hardcore, Grunge, Alternative (Alternative) Red Hot Chili Peppers - Greatest Hits (2003) [iTunes AAC M4A, 256 kbps VBR] Web garry
2 | 0

0 | 2253

3

02.06.2009 18:51

Зарубежный Punk, Hardcore, Grunge, Alternative (Alternative) The Killers - Discography (2004-2013) [iTunes AAC M4A, 256 kbps VBR] Web garry
13 | 3

0 | 6659

4

20.06.2009 12:07

Зарубежный Punk, Hardcore, Grunge, Alternative (Alternative, Pop-Punk, Female Vocal) We Are the In Crowd - Weird Kids [Deluxe Edition] (2014) [MP3, 320 kbps] Jimmy
1 | 0

0 | 1248

3

23.04.2014 15:58

Зарубежный Punk, Hardcore, Grunge, Alternative (Alternative, Pop Punk, Emo) Fireworks - (Oh), Common Life (2014) [MP3, 320 kbps] Jimmy
0 | 1

0 | 1043

4

23.04.2014 15:55


Яндекс.Метрика powered by Sphinx


В Н И М А Н И Е
Сайт не распространяет и не хранит электронные версии произведений, а лишь бесплатно и без коммерческой выгоды (не требуя взамен платы,
SMS и т.д.) предоставляет доступ к создаваемому пользователями каталогу ссылок на торрент-файлы, которые содержат только списки хеш-сумм.
Убедительная просьба с жалобами обращаться напрямую к пользователю, разместившему торрент файл.

Вверх