Loading...
Error

(Alternative Rock, Goth Rock) Пикник - Искры и Канкан (2017) [FLAC (Image+.Cue), Lossless]

Статистика раздачи
Размер:  312 MB   |    Зарегистрирован:  8 месяцев   |    Скачан:  11 раз

Полного источника не было: 15 дней

Сидов:  0  |  0 KB/s  ]   Личеров:  0  |  0 KB/s  ]

* - сиды/пиры с внешних источников

   
 
Автор Сообщение

Бишеп Пол:Муж

28-Фев-2018 09:32

Пикник - Искры и Канкан

Жанр: Alternative Rock, Goth Rock
Год выпуска: 2017
Источник: CD
Производитель диска: ООО «Вектор» - VEK-CD-61
Аудиокодек: FLAC
Тип рипа: Image+.CUE
Битрейт аудио: lossless
Продолжительность: 00:41:51


Треклист:
01. Лихие пришли времена (4:12)
02. Злая кровь (4:35)
03. Парню 90 лет (4:07)
04. Последний из Могикан (5:09)
05. Всё хорошо! (2:52)
06. Ты кукла из папье-маше (4:38)
07. Большая игра (3:54)
08. Принцесса (4:10)
09. Зачем? (3:12)
10. Ничего... (4:12)

Код:

Exact Audio Copy V1.3 from 2. September 2016

EAC extraction logfile from 27. October 2017, 1:13

Пикник / Искры и Канкан

Used drive  : ASUS    DRW-24B3LT   Adapter: 1  ID: 0

Read mode               : Secure
Utilize accurate stream : Yes
Defeat audio cache      : Yes
Make use of C2 pointers : No

Read offset correction                      : 6
Overread into Lead-In and Lead-Out          : No
Fill up missing offset samples with silence : Yes
Delete leading and trailing silent blocks   : No
Null samples used in CRC calculations       : Yes
Used interface                              : Native Win32 interface for Win NT & 2000

Used output format : Internal WAV Routines
Sample format      : 44.100 Hz; 16 Bit; Stereo

TOC of the extracted CD

     Track |   Start  |  Length  | Start sector | End sector
    ---------------------------------------------------------
        1  |  0:00.00 |  4:13.31 |         0    |    19005   
        2  |  4:13.31 |  4:35.63 |     19006    |    39693   
        3  |  8:49.19 |  4:08.43 |     39694    |    58336   
        4  | 12:57.62 |  5:10.10 |     58337    |    81596   
        5  | 18:07.72 |  2:53.52 |     81597    |    94623   
        6  | 21:01.49 |  4:40.52 |     94624    |   115675   
        7  | 25:42.26 |  3:55.46 |    115676    |   133346   
        8  | 29:37.72 |  4:11.30 |    133347    |   152201   
        9  | 33:49.27 |  3:14.08 |    152202    |   166759   
       10  | 37:03.35 |  4:12.13 |    166760    |   185672   

Range status and errors

Selected range

     Filename D:\Osieron\My Documents\Desktop\Test&Copy\Пикник - Искры и Канкан.wav

     Peak level 96.6 %
     Extraction speed 5.9 X
     Range quality 100.0 %
     Test CRC C7775B7D
     Copy CRC C7775B7D
     Copy OK

No errors occurred

 
AccurateRip summary
 
Track  1  not present in database
Track  2  not present in database
Track  3  not present in database
Track  4  not present in database
Track  5  not present in database
Track  6  not present in database
Track  7  not present in database
Track  8  not present in database
Track  9  not present in database
Track 10  not present in database
 
None of the tracks are present in the AccurateRip database

End of status report

==== Log checksum D7D3F6A936BE8C31262C693D995FB366FC550F718618293B66E8B1A86F613388 ====

Код:

REM GENRE "Rock"
REM DATE 2017
REM DISCID 8309AB0A
REM COMMENT "ExactAudioCopy v1.3"
PERFORMER "Пикник"
TITLE "Искры и Канкан"
REM COMPOSER "Эдмунд Шклярский"
CATALOG "4 640004 137799"
REM DISCNUMBER 1
REM TOTALDISCS 1
FILE "Пикник - Искры и Канкан.flac" WAVE
  TRACK 01 AUDIO
    TITLE "Лихие пришли времена"
    PERFORMER "Пикник"
    REM COMPOSER "Эдмунд Шклярский"
    INDEX 01 00:00:00
  TRACK 02 AUDIO
    TITLE "Злая кровь"
    PERFORMER "Пикник"
    REM COMPOSER "Эдмунд Шклярский"
    INDEX 00 04:12:48
    INDEX 01 04:13:31
  TRACK 03 AUDIO
    TITLE "Парню 90 лет"
    PERFORMER "Пикник"
    REM COMPOSER "Эдмунд Шклярский"
    INDEX 00 08:48:43
    INDEX 01 08:49:19
  TRACK 04 AUDIO
    TITLE "Последний из Могикан"
    PERFORMER "Пикник"
    REM COMPOSER "Эдмунд Шклярский"
    INDEX 00 12:56:73
    INDEX 01 12:57:62
  TRACK 05 AUDIO
    TITLE "Всё хорошо!"
    PERFORMER "Пикник"
    REM COMPOSER "Эдмунд Шклярский"
    INDEX 00 18:07:15
    INDEX 01 18:07:72
  TRACK 06 AUDIO
    TITLE "Ты кукла из папье-маше"
    PERFORMER "Пикник"
    REM COMPOSER "Эдмунд Шклярский"
    INDEX 00 21:00:41
    INDEX 01 21:01:49
  TRACK 07 AUDIO
    TITLE "Большая игра"
    PERFORMER "Пикник"
    REM COMPOSER "Эдмунд Шклярский"
    INDEX 00 25:40:27
    INDEX 01 25:42:26
  TRACK 08 AUDIO
    TITLE "Принцесса"
    PERFORMER "Пикник"
    REM COMPOSER "Эдмунд Шклярский"
    INDEX 00 29:36:57
    INDEX 01 29:37:72
  TRACK 09 AUDIO
    TITLE "Зачем?"
    PERFORMER "Пикник"
    REM COMPOSER "Эдмунд Шклярский"
    INDEX 00 33:47:74
    INDEX 01 33:49:27
  TRACK 10 AUDIO
    TITLE "Ничего..."
    PERFORMER "Пикник"
    REM COMPOSER "Эдмунд Шклярский"
    INDEX 00 37:01:36
    INDEX 01 37:03:35

Этот торрент недоступен для скачивания без регистрации, однако доступен по публичной magnet-ссылке (источники с публичных трекеров). Перед использованием ссылки прочтите, пожалуйста Пользовательское соглашение, а также как можно дольше оставайтесь на раздаче! Для того, чтобы скачать сам торрент-файл (который видит больше источников), а также для того, чтобы поблагодарить релизера, вам необходимо зарегистрироваться. Если регистрироваться лень - вы можете также попробовать скачать релиз по нашим партнерским ссылкам ниже. Кроме того, зарегистрированным пользователям не показывается всплывающая реклама при скачивании.

[underverse.me].t98230.torrent
Трекер: Зарегистрирован   [ 28.02.2018 09:32 ]  

Статус: проверено (by Бишеп at 28.02.2018 09:32)
Поблагодарили: 1 человек
Тип торрента: публичный - доступные источники с открытых трекеров: 
Размер: 312 MB (занимает 0,07 DVDR, для записи нужно 1 болванка DVDR/RW)
 
 
Похожие темы
Форум Тема Автор Торрент Отв. Посл. сооб.
Зарубежная Pop Музыка (Alternative Pop, Neo Soul, Indie) Amanda Jenssen - Sanger fran on (2015) [MP3, 320 kbps] 90ytr90
1 | 0

0 | 1271

3

23.03.2015 19:02

Зарубежная Pop Музыка (Alternative, Indie) Anna of the North - Lovers (2017) [MP3, 320 kbps CBR] Darkferse
3 | 0

0 | 941

4

13.09.2017 08:47

Зарубежная Pop Музыка (Alternative, Pop, Soul) Plan B - Heaven Before All Hell Breaks Loose (2018) [MP3, 320 kbps CBR] 90ytr90
25 | 1

0 | 463

3

03.06.2018 05:52

Зарубежная Pop Музыка (Alternative, Pop, Hip-Hop) Twenty One Pilots - Trench (2018) [MP3, 320 kbps CBR] 90ytr90
17 | 0

0 | 822

5

03.10.2018 17:04

Зарубежный Hard, Progressive, Soft, Melodic, AOR, Folk, Classic Rock (Alternative Rock / Progressive Rock) Muse - The 2nd Law (2012) [MP3, 320 kbps] Jimmy
0 | 0

0 | 1509

13

27.09.2012 04:30

Зарубежный Hard, Progressive, Soft, Melodic, AOR, Folk, Classic Rock (Alternative, Rock, Folk Rock) Valley Of Wolves - Out For Blood (2018) [MP3, 320 kbps CBR] 90ytr90
5 | 0

0 | 205

3

25.09.2018 15:29

Зарубежный Hard, Progressive, Soft, Melodic, AOR, Folk, Classic Rock (Alternative, Hard Rock) ZoomOut - Sold Out (2018) [MP3, 320 kbps CBR] 90ytr90
1 | 0

0 | 136

1

27.09.2018 08:47

Зарубежный Hard, Progressive, Soft, Melodic, AOR, Folk, Classic Rock (Alternative Metal, Hard Rock) Those Damn Crows - Murder and the Motive (2018) [MP3, 320 kbps CBR] 90ytr90
10 | 1

0 | 81

2

10.11.2018 15:11

Зарубежный Black, Death, Heavy, Thrash, Power, Folk, Gothic Metal (Alternative Metal) This Tragic Day - This Tragic Day (2012) [MP3, 320 kbps] NiiggazCPT
1 | 0

0 | 1656

4

28.10.2012 07:21

Зарубежный Black, Death, Heavy, Thrash, Power, Folk, Gothic Metal (Alternative Metal, Gothic Metal) Evanescence - Synthesis Live (2018) [MP3, 320 kbps CBR] 90ytr90
19 | 1

0 | 300

4

16.10.2018 17:14


Яндекс.Метрика powered by Sphinx


В Н И М А Н И Е
Сайт не распространяет и не хранит электронные версии произведений, а лишь бесплатно и без коммерческой выгоды (не требуя взамен платы,
SMS и т.д.) предоставляет доступ к создаваемому пользователями каталогу ссылок на торрент-файлы, которые содержат только списки хеш-сумм.
Убедительная просьба с жалобами обращаться напрямую к пользователю, разместившему торрент файл.

Вверх