Loading...
Error

Стань легендой! Бигфут Младший / The Son of Bigfoot (Жереми Дегрусон, Бен Стассен) [2017 г., мультфильм, комедия, семейный, полнометражный, BDRip 1080p] Dub + Original (Eng) + Sub (Eng, Ger)

Статистика раздачи
Размер:  5,76 GB   |    Зарегистрирован:  5 месяцев 17 дней   |    Скачан:  5 раз

Полного источника не было: 1 день 17 часов

Сидов:  0  |  0 KB/s  ]   Личеров:  0  |  0 KB/s  ]

* - сиды/пиры с внешних источников

   
 
Автор Сообщение

90ytr90 

02-Мар-2018 09:40

Стань легендой! Бигфут Младший / The Son of Bigfoot


Название: Стань легендой! Бигфут Младший
Оригинальное название: The Son of Bigfoot
Год выпуска: 2017
Жанр: Мультфильм, комедия, семейный, полнометражный
Режиссер: Жереми Дегрусон, Бен Стассен
Актеры фильма: Синда Адамс, Боб Барлен, Кэллан Брункер, Джои Камен, Дэвид Эпштейн, Кристофер Л. Парсон, Джо Томас

Описание:
Обычный подросток по имени Адам отправляется на поиски своего давно пропавшего отца и попадает в приключение мифических масштабов. Его мир переворачивается вверх дном, когда оказывается, что в нем течет кровь последних легендарных хранителей леса — бигфутов. Теперь ему открыты такие способности как суперскорость, живительное прикосновение и возможность понимать язык животных.



Страна: Франция, Бельгия
Студия: Belga Productions, Illuminata Pictures, nWave Pictures, Studio Canal, Waterman Entertainment
Продолжительность: 01:31:45
Перевод: Профессиональный (полное дублирование)

Кодек: h.264
Качество: BDRip 1080p
Видео: MPEG-4 AVC, 7700 Кбит/с, 1920x808, 23.976 кадр/с
Звук: Blu-Ray Disc BLUEBIRD
Аудио #1: Русский ( АС3, 6 ch, 640 Кбит/с, 48.0 KHz) Дубляж [Лицензия]
Аудио #2: Английский ( АС3, 6 ch, 640 Кбит/с, 48.0 KHz)
Субтитры: Английские, немецкие (отключаемые)

Семпл
General
Unique ID : 247312341999124658983350847482117637211 (0xBA0E9FDFB547CEEFB14AAEC9A232445B)
Complete name : C:\Program Files (x86)DownloadsThe.Son.Of.Bigfoot.2017.BDRip.1080p.mkv
Format : Matroska
Format version : Version 4 / Version 2
File size : 5.76 GiB
Duration : 1 h 31 min
Overall bit rate : 8 993 kb/s
Movie name : The Son of Bigfoot (2017) BLUEBIRD
Encoded date : UTC 2018-01-23 20:24:15
Writing application : mkvmerge v7.1.0 ('Good Love') 64bit built on Jul 27 2014 13:06:55
Writing library : libebml v1.3.0 + libmatroska v1.4.1

Video
ID : 1
Format : AVC
Format/Info : Advanced Video Codec
Format profile : High@L4.1
Format settings : CABAC / 4 Ref Frames
Format settings, CABAC : Yes
Format settings, ReFrames : 4 frames
Codec ID : V_MPEG4/ISO/AVC
Duration : 1 h 31 min
Bit rate : 7 700 kb/s
Width : 1 920 pixels
Height : 808 pixels
Display aspect ratio : 2.40:1
Frame rate mode : Constant
Frame rate : 23.976 (24000/1001) FPS
Color space : YUV
Chroma subsampling : 4:2:0
Bit depth : 8 bits
Scan type : Progressive
Bits/(Pixel*Frame) : 0.207
Stream size : 4.93 GiB (86%)
Writing library : x264 core 148 r2638 7599210
Encoding settings : cabac=1 / ref=4 / deblock=1:-2:-2 / analyse=0x3:0x133 / me=umh / subme=11 / psy=1 / psy_rd=1.00:0.20 / mixed_ref=1 / me_range=32 / chroma_me=1 / trellis=2 / 8x8dct=1 / cqm=0 / deadzone=21,11 / fast_pskip=1 / chroma_qp_offset=-3 / threads=6 / lookahead_threads=1 / sliced_threads=0 / nr=0 / decimate=1 / interlaced=0 / bluray_compat=0 / constrained_intra=0 / bframes=10 / b_pyramid=2 / b_adapt=2 / b_bias=0 / direct=3 / weightb=1 / open_gop=0 / weightp=2 / keyint=250 / keyint_min=23 / scenecut=40 / intra_refresh=0 / rc_lookahead=60 / rc=2pass / mbtree=1 / bitrate=7700 / ratetol=1.0 / qcomp=0.60 / qpmin=0 / qpmax=69 / qpstep=4 / cplxblur=20.0 / qblur=0.5 / ip_ratio=1.40 / aq=1:1.00
Default : Yes
Forced : No

Audio #1
ID : 2
Format : AC-3
Format/Info : Audio Coding 3
Codec ID : A_AC3
Duration : 1 h 31 min
Bit rate mode : Constant
Bit rate : 640 kb/s
Channel(s) : 6 channels
Channel positions : Front: L C R, Side: L R, LFE
Sampling rate : 48.0 kHz
Frame rate : 31.250 FPS (1536 SPF)
Bit depth : 16 bits
Compression mode : Lossy
Stream size : 420 MiB (7%)
Service kind : Complete Main
Default : Yes
Forced : No

Audio #2
ID : 3
Format : AC-3
Format/Info : Audio Coding 3
Codec ID : A_AC3
Duration : 1 h 31 min
Bit rate mode : Constant
Bit rate : 640 kb/s
Channel(s) : 6 channels
Channel positions : Front: L C R, Side: L R, LFE
Sampling rate : 48.0 kHz
Frame rate : 31.250 FPS (1536 SPF)
Bit depth : 16 bits
Compression mode : Lossy
Stream size : 420 MiB (7%)
Service kind : Complete Main
Default : No
Forced : No

Text #1
ID : 4
Format : PGS
Muxing mode : zlib
Codec ID : S_HDMV/PGS
Codec ID/Info : Picture based subtitle format used on BDs/HD-DVDs
Duration : 1 h 30 min
Bit rate : 12.5 kb/s
Count of elements : 2222
Stream size : 8.09 MiB (0%)
Language : German
Default : Yes
Forced : No

Text #2
ID : 5
Format : UTF-8
Codec ID : S_TEXT/UTF8
Codec ID/Info : UTF-8 Plain Text
Duration : 1 h 27 min
Bit rate : 58 b/s
Count of elements : 1294
Stream size : 37.7 KiB (0%)
Language : English
Default : No
Forced : No

Menu
00:00:00.000 : en:Chapter 1
00:00:25.708 : en:Chapter 2
00:09:52.250 : en:Chapter 3
00:20:05.625 : en:Chapter 4
00:31:35.750 : en:Chapter 5
00:42:31.458 : en:Chapter 6
00:55:00.166 : en:Chapter 7
01:03:24.041 : en:Chapter 8
01:16:09.833 : en:Chapter 9

Этот торрент недоступен для скачивания без регистрации, однако доступен по публичной magnet-ссылке (источники с публичных трекеров). Перед использованием ссылки прочтите, пожалуйста Пользовательское соглашение, а также как можно дольше оставайтесь на раздаче! Для того, чтобы скачать сам торрент-файл (который видит больше источников), а также для того, чтобы поблагодарить релизера, вам необходимо зарегистрироваться. Если регистрироваться лень - вы можете также попробовать скачать релиз по нашим партнерским ссылкам ниже. Кроме того, зарегистрированным пользователям не показывается всплывающая реклама при скачивании.

[underverse.me].t98545.torrent
Трекер: Зарегистрирован   [ 02.03.2018 09:40 ]  

Статус: * не проверено
Поблагодарили: пока никто не поблагодарил...
Тип торрента: публичный - доступные источники с открытых трекеров: 
Размер: 5,76 GB (занимает 1,32 DVDR, для записи нужно 2 болванки DVDR/RW)
 
 
Похожие темы
Форум Тема Автор Торрент Отв. Посл. сооб.
© Зарубежные мультфильмы Стань легендой! Бигфут Младший / The Son of Bigfoot (Жереми Дегрусон / Jeremy Degruson, Бен Стассен / Ben Stassen) [2017 г., мультфильм, комедия, WEB-DLRip] Dub (чистый звук) 90ytr90
38 | 1
1,37 GB

0 | 1117

19

15.11.2017 16:42

© Зарубежные мультфильмы Стань легендой! Бигфут Младший / The Son of Bigfoot (Жереми Дегрусон, Бен Стассен) [2017 г., мультфильм, фэнтези, комедия, семейный, BDRip] Dub (iTunes) makkol
114 | 0
1,42 GB

0 | 1847

24

13.12.2017 22:13

Зарубежные мультфильмы Стань легендой! Бигфут Младший / The Son of Bigfoot (Жереми Дегрусон / Jeremy Degruson, Бен Стассен / Ben Stassen,) [2017 г., мультфильм, комедия, семейный, BDRip] Dub 90ytr90
14 | 0

0 | 272

4

02.03.2018 09:30

Зарубежные мультфильмы Стань легендой! Бигфут Младший / The Son of Bigfoot (Жереми Дегрусон / Jeremy Degruson, Бен Стассен / Ben Stassen) [2017 г., мультфильм, фэнтези, комедия, семейный, BDRip-AVC] Dub + Original (Eng) +... 90ytr90
11 | 0

0 | 385

10

02.03.2018 09:48

Зарубежные мультфильмы Стань легендой! Бигфут Младший / The Son of Bigfoot (Жереми Дегрусон / Jeremy Degruson, Бен Стассен / Ben Stassen) [2017 г., мультфильм, фэнтези, комедия, семейный, BDRip-AVC] Dub 90ytr90
33 | 2

0 | 384

4

02.03.2018 10:07

Зарубежные мультфильмы Стань легендой! Бигфут Младший / The Son of Bigfoot (Жереми Дегрусон, Бен Стассен) [2017 г., мультфильм, комедия, семейный, BDRip] Dub 90ytr90
71 | 1

0 | 414

23

02.03.2018 10:08

Мультфильмы [DVD / HDDVD / BD / Remux] Стань легендой! Бигфут Младший / The Son of Bigfoot (Жереми Дегрусон / Jeremy Degruson, Бен Стассен / Ben Stassen,) [2017 г., мультфильм, комедия, семейный, BD 1080p] [RUS Transfer] Dub + Original... 90ytr90
0 | 0

0 | 407

1

02.03.2018 09:47

© Мультфильмы [HDDVDRip / BDRip / WEB-DL / HDTV 1080/720р] Стань легендой! Бигфут Младший / The Son of Bigfoot (Жереми Дегрусон / Jeremy Degruson, Бен Стассен / Ben Stassen) [2017 г., мультфильм, комедия, WEB-DL 1080p] Dub (чистый звук) 90ytr90
5 | 0
3,5 GB

0 | 1035

21

15.11.2017 16:51

© Мультфильмы [HDDVDRip / BDRip / WEB-DL / HDTV 1080/720р] Стань легендой! Бигфут Младший / The Son of Bigfoot (Жереми Дегрусон / Jeremy Degruson, Бен Стассен / Ben Stassen) [2017 г., мультфильм, комедия, WEB-DL 720p] Dub (чистый звук) 90ytr90
1 | 0
2,97 GB

0 | 1042

15

15.11.2017 16:54

© Мультфильмы [HDDVDRip / BDRip / WEB-DL / HDTV 1080/720р] Стань легендой! Бигфут Младший / The Son of Bigfoot (Жереми Дегрусон, Бен Стассен) [2017 г., мультфильм, фэнтези, комедия, семейный, BDRip 1080p] Dub (iTunes) + Original makkol
7 | 0
8,81 GB

0 | 945

18

14.12.2017 11:40


Яндекс.Метрика powered by Sphinx


В Н И М А Н И Е
Сайт не распространяет и не хранит электронные версии произведений, а лишь бесплатно и без коммерческой выгоды (не требуя взамен платы,
SMS и т.д.) предоставляет доступ к создаваемому пользователями каталогу ссылок на торрент-файлы, которые содержат только списки хеш-сумм.
Убедительная просьба с жалобами обращаться напрямую к пользователю, разместившему торрент файл.

Вверх