Loading...
Error

Kingsman: Золотое кольцо / Kingsman: The Golden Circle (Мэттью Вон) [2017 г., боевик, комедия, приключения, BDRemux 1080p] 2xDub (Rus, Ukr) + AVO (Сербин) + Original (Eng) + Sub (Rus, Eng)

Статистика раздачи
Размер:  33,03 GB   |    Зарегистрирован:  5 месяцев 14 дней   |    Скачан:  3 раза

Полного источника не было: 25 дней

Сидов:  0  |  0 KB/s  ]   Личеров:  0  |  0 KB/s  ]

* - сиды/пиры с внешних источников

   
 
Автор Сообщение

90ytr90 

05-Мар-2018 14:17

Kingsman: Золотое кольцо / Kingsman: The Golden Circle
«Reports of my death have been greatly exaggerated»

Страна: Великобритания, США
Год выпуска: 2017
Жанр: боевик, комедия, приключения
Продолжительность: 02:21:02
Озвучивание:
  • профессиональное (полное дублирование) [русский (лицензия)]
  • авторское (одноголосое закадровое) [Ю.Сербин]
  • оригинальная звуковая дорожка [английский]
  • профессиональное (полное дублирование) [украинский (лицензия)]

Режиссёр: Мэттью Вон / Matthew Vaughn

В ролях: Тэрон Эджертон (Eggsy), Колин Фёрт (Harry Hart), Марк Стронг (Merlin), Джулианна Мур (Poppy), Холли Берри (Ginger), Педро Паскаль (Whiskey), Ченнинг Татум (Tequila), Джефф БриMatthew Vaughnджес (Champ), Эдвард Холкрофт (Charlie), Ханна Альстрём (Princess Tilde), Гордон Александр (Kingsman Cab Driver), Кэлвин Демба (Brandon)


Сюжет фильма:
Когда штаб-квартиры секретной службы Kingsman уничтожены, и весь мир оказался в заложниках у неизвестных, британские суперагенты обнаруживают, что в один день вместе с их организацией была еще создана американская разведка — Statesman. Теперь эти две элитные спецслужбы должны объединиться и бросить вызов общему безжалостному врагу, чтобы спасти мир, то есть заняться тем, что для Эггси становится обычным делом…

  • Дата мировой премьеры: 20 сентября 2017
  • Дата российской премьеры: 21 сентября 2017, «Двадцатый Век Фокс СНГ»
  • Цифровой релиз: 29 декабря 2017, «Двадцатый Век Фокс СНГ»
             
Качество видео: BDRemux 1080p
Формат: MKV
Видео: AVC, 1920x1080 (16:9), 21.7 Mbps, 33.5 Mbps, 23.976 (24000/1001) fps, 0.436 bit/pixel
Аудио #1: DTS, 768 kbps, 6 ch, 48 kHz, Dub [Russian.лицензия]
Аудио #1: AC3, 448 kbps, 6 ch, 48 kHz, Dub [Russian.лицензия]
Аудио #2: DTS-HD MA, 5034/1509 kbps, 8 ch/6 ch, 48 kHz, AVO [Ю.Сербин]
Аудио #4: DTS-HD MA, 5129/1509 kbps, 8 ch/6 ch, 48 kHz, Original [English]
Аудио #3: AC3, 448 kbps, 6 ch, 48 kHz, Dub [Ukrainian.лицензия]
Субтитры: Russian (forced, full), English
Навигация по главам: есть (28)



Общее
Уникальный идентификатор : 249480650341483318474514035270024193444 (0xBBB039BA9DBBE264959E50578CB865A4)
Полное имя : D:\РЕМУКС!!!!!\Kingsman. Золотое кольцо.BDRemux.mkv
Формат : Matroska
Версия формата : Version 4 / Version 2
Размер файла : 33,0 Гбайт
Продолжительность : 2 ч. 21 м.
Режим общего битрейта : Переменный
Общий поток : 33,5 Мбит/сек
Название фильма : Kingsman: Золотое кольцо.BDRemux.thx:SPOMOPS
Дата кодирования : UTC 2018-01-19 19:54:17
Программа кодирования : mkvmerge v8.3.0 ('Over the Horizon') 64bit
Библиотека кодирования : libebml v1.3.1 + libmatroska v1.4.2

Видео
Идентификатор : 1
Формат : AVC
Формат/Информация : Advanced Video Codec
Профиль формата : High@L4.1
Настройки формата : CABAC / 4 Ref Frames
Параметр CABAC формата : Да
Параметр RefFrames формата : 4 кадра
Идентификатор кодека : V_MPEG4/ISO/AVC
Продолжительность : 2 ч. 21 м.
Вид битрейта : Переменный
Битрейт : 21,7 Мбит/сек
Максимальный битрейт : 33,5 Мбит/сек
Ширина : 1920 пикселей
Высота : 1080 пикселей
Соотношение сторон : 16:9
Режим частоты кадров : Постоянный
Частота кадров : 23,976 (24000/1001) кадра/сек
Цветовое пространство : YUV
Субдискретизация насыщенности : 4:2:0
Битовая глубина : 8 бит
Тип развёртки : Прогрессивная
Бит/(Пиксели*Кадры) : 0.436
Размер потока : 21,4 Гбайт (65%)
Default : Да
Forced : Нет

Аудио #1
Идентификатор : 2
Формат : DTS
Формат/Информация : Digital Theater Systems
Идентификатор кодека : A_DTS
Продолжительность : 2 ч. 21 м.
Вид битрейта : Постоянный
Битрейт : 768 Кбит/сек
Каналы : 6 каналов
Расположение каналов : Front: L C R, Side: L R, LFE
Частота : 48,0 КГц
Частота кадров : 93,750 кадра/сек (512 SPF)
Битовая глубина : 24 бит
Метод сжатия : С потерями
Размер потока : 775 Мбайт (2%)
Заголовок : Русский DTS - Дубляж
Язык : Russian
Default : Да
Forced : Нет

Аудио #2
Идентификатор : 3
Формат : AC-3
Формат/Информация : Audio Coding 3
Идентификатор кодека : A_AC3
Продолжительность : 2 ч. 21 м.
Вид битрейта : Постоянный
Битрейт : 448 Кбит/сек
Каналы : 6 каналов
Расположение каналов : Front: L C R, Side: L R, LFE
Частота : 48,0 КГц
Частота кадров : 31,250 кадров/сек (1536 SPF)
Битовая глубина : 16 бит
Метод сжатия : С потерями
Размер потока : 452 Мбайт (1%)
Заголовок : Русский ас3 - Дубляж
Язык : Russian
ServiceKind/String : Complete Main
Default : Нет
Forced : Нет

Аудио #3
Идентификатор : 4
Формат : DTS
Формат/Информация : Digital Theater Systems
Профиль формата : MA / Core
Идентификатор кодека : A_DTS
Продолжительность : 2 ч. 21 м.
Вид битрейта : Переменный / Постоянный
Битрейт : 5034 Кбит/сек / 1509 Кбит/сек
Каналы : 8 каналов / 6 каналов
Расположение каналов : Front: L C R, Side: L R, Back: L R, LFE / Front: L C R, Side: L R, LFE
Частота : 48,0 КГц
Частота кадров : 93,750 кадра/сек (512 SPF)
Битовая глубина : 24 бит
Метод сжатия : Без потерь / Lossy
Размер потока : 4,96 Гбайт (15%)
Заголовок : Русский DTS-HD MA - АП (Сербин)
Язык : Russian
Default : Нет
Forced : Нет

Аудио #4
Идентификатор : 5
Формат : DTS
Формат/Информация : Digital Theater Systems
Профиль формата : MA / Core
Идентификатор кодека : A_DTS
Продолжительность : 2 ч. 21 м.
Вид битрейта : Переменный / Постоянный
Битрейт : 5129 Кбит/сек / 1509 Кбит/сек
Каналы : 8 каналов / 6 каналов
Расположение каналов : Front: L C R, Side: L R, Back: L R, LFE / Front: L C R, Side: L R, LFE
Частота : 48,0 КГц
Частота кадров : 93,750 кадра/сек (512 SPF)
Битовая глубина : 24 бит
Метод сжатия : Без потерь / Lossy
Размер потока : 5,05 Гбайт (15%)
Заголовок : Английский DTS-HD MA - оригинал
Язык : English
Default : Нет
Forced : Нет

Аудио #5
Идентификатор : 6
Формат : AC-3
Формат/Информация : Audio Coding 3
Идентификатор кодека : A_AC3
Продолжительность : 2 ч. 21 м.
Вид битрейта : Постоянный
Битрейт : 448 Кбит/сек
Каналы : 6 каналов
Расположение каналов : Front: L C R, Side: L R, LFE
Частота : 48,0 КГц
Частота кадров : 31,250 кадров/сек (1536 SPF)
Битовая глубина : 16 бит
Метод сжатия : С потерями
Размер потока : 452 Мбайт (1%)
Заголовок : Украинский ас3
Язык : Ukrainian
ServiceKind/String : Complete Main
Default : Нет
Forced : Нет

Текст #1
Идентификатор : 7
Формат : UTF-8
Идентификатор кодека : S_TEXT/UTF8
Идентификатор кодека/Информация : UTF-8 Plain Text
Продолжительность : 2 ч. 19 м.
Битрейт : 0 бит/сек
ElementCount : 14
Размер потока : 418 байт (0%)
Заголовок : Русские - форс.
Язык : Russian
Default : Да
Forced : Нет

Текст #2
Идентификатор : 8
Формат : UTF-8
Идентификатор кодека : S_TEXT/UTF8
Идентификатор кодека/Информация : UTF-8 Plain Text
Продолжительность : 2 ч. 13 м.
Битрейт : 91 бит/сек
ElementCount : 1847
Размер потока : 89,3 Кбайт (0%)
Заголовок : Русские
Язык : Russian
Default : Нет
Forced : Нет

Текст #3
Идентификатор : 9
Формат : UTF-8
Идентификатор кодека : S_TEXT/UTF8
Идентификатор кодека/Информация : UTF-8 Plain Text
Продолжительность : 2 ч. 13 м.
Битрейт : 55 бит/сек
ElementCount : 1882
Размер потока : 54,2 Кбайт (0%)
Заголовок : Английские
Язык : English
Default : Нет
Forced : Нет

Текст #4
Идентификатор : 10
Формат : UTF-8
Идентификатор кодека : S_TEXT/UTF8
Идентификатор кодека/Информация : UTF-8 Plain Text
Продолжительность : 2 ч. 13 м.
Битрейт : 60 бит/сек
ElementCount : 2142
Размер потока : 58,8 Кбайт (0%)
Заголовок : Английские
Язык : English
Default : Нет
Forced : Нет

Меню
00:00:00.000 : en:Chapter 01
00:04:51.958 : en:Chapter 02
00:09:39.454 : en:Chapter 03
00:13:36.607 : en:Chapter 04
00:18:54.300 : en:Chapter 05
00:24:57.287 : en:Chapter 06
00:28:43.347 : en:Chapter 07
00:32:52.304 : en:Chapter 08
00:39:18.731 : en:Chapter 09
00:43:21.849 : en:Chapter 10
00:48:26.570 : en:Chapter 11
00:53:54.106 : en:Chapter 12
00:58:31.258 : en:Chapter 13
01:05:04.901 : en:Chapter 14
01:09:52.522 : en:Chapter 15
01:13:34.744 : en:Chapter 16
01:19:41.860 : en:Chapter 17
01:23:45.103 : en:Chapter 18
01:28:55.288 : en:Chapter 19
01:33:25.225 : en:Chapter 20
01:40:14.759 : en:Chapter 21
01:45:03.255 : en:Chapter 22
01:49:38.489 : en:Chapter 23
01:55:15.992 : en:Chapter 24
02:01:40.835 : en:Chapter 25
02:05:44.036 : en:Chapter 26
02:12:36.407 : en:Chapter 27
02:15:15.274 : en:Chapter 28


pic pic pic
Для увеличения картинки щелкните мышкой по превью



pic pic pic pic pic pic

Этот торрент недоступен для скачивания без регистрации, однако доступен по публичной magnet-ссылке (источники с публичных трекеров). Перед использованием ссылки прочтите, пожалуйста Пользовательское соглашение, а также как можно дольше оставайтесь на раздаче! Для того, чтобы скачать сам торрент-файл (который видит больше источников), а также для того, чтобы поблагодарить релизера, вам необходимо зарегистрироваться. Если регистрироваться лень - вы можете также попробовать скачать релиз по нашим партнерским ссылкам ниже. Кроме того, зарегистрированным пользователям не показывается всплывающая реклама при скачивании.

[underverse.me].t99042.torrent
Трекер: Зарегистрирован   [ 05.03.2018 14:17 ]  

Статус: проверено (by 90ytr90 at 01.04.2018 05:49)
Поблагодарили: пока никто не поблагодарил...
Тип торрента: публичный - доступные источники с открытых трекеров: 
Размер: 33,03 GB (занимает 7,55 DVDR, для записи нужно 8 болванок DVDR/RW)
 
 
Похожие темы
Форум Тема Автор Торрент Отв. Посл. сооб.
Зарубежное кино [DVDRip, Low-Res HDRip, и т.д.] Kingsman: Секретная служба / Kingsman: The Secret Service (Мэттью Вон / Matthew Vaughn) [2014 г., боевик, комедия, криминал, приключения, HDRip] Dub 90ytr90
7 | 0

0 | 194

0

05.03.2018 14:53

Зарубежное кино [DVDRip, Low-Res HDRip, и т.д.] Kingsman: Секретная служба / Kingsman: The Secret Service (Мэттью Вон / Matthew Vaughn) [2014 г., боевик, комедия, криминал, приключения, BDRip] Dub + hardsub (Rus) 90ytr90
18 | 0

0 | 200

5

05.03.2018 14:48

Зарубежное кино [DVDRip, Low-Res HDRip, и т.д.] Kingsman: Секретная служба / Kingsman: The Secret Service (Мэттью Вон / Matthew Vaughn) [2014 г., боевик, комедия, криминал, приключения, HDRip] Dub 90ytr90
10 | 0

0 | 205

1

05.03.2018 14:45

Зарубежное кино [DVDRip, Low-Res HDRip, и т.д.] Kingsman: Секретная служба / Kingsman: The Secret Service (Мэттью Вон / Matthew Vaughn) [2014 г., боевик, комедия, криминал, приключения, BDRip-AVC] Dub + Sub (Rus) 90ytr90
1 | 0

0 | 202

2

05.03.2018 14:43

Зарубежное кино [DVDRip, Low-Res HDRip, и т.д.] Kingsman: Секретная служба / Kingsman: The Secret Service (Мэттью Вон / Matthew Vaughn) [2014 г., боевик, комедия, криминал, приключения, BDRip-AVC] Dub + Original (Eng) + Sub (Rus, Ukr, Eng) 90ytr90
2 | 0

0 | 169

0

05.03.2018 14:41

Зарубежное кино [DVDRip, Low-Res HDRip, и т.д.] Kingsman: Секретная служба / Kingsman: The Secret Service (Мэттью Вон / Matthew Vaughn) [2014 г., боевик, комедия, криминал, приключения, BDRip] Dub 90ytr90
11 | 0

0 | 186

3

05.03.2018 14:39

T Зарубежное кино [DVDRip, Low-Res HDRip, и т.д.] Kingsman: Золотое кольцо / Kingsman: The Golden Circle (Мэттью Вон) [2017 г., боевик, комедия, приключения, WEB-DLRip] MVO (@MUZOBOZ@) makkol
15 | 2

0 | 1124

23

27.11.2017 10:34

Зарубежное кино [DVDRip, Low-Res HDRip, и т.д.] Kingsman: Золотое кольцо / Kingsman: The Golden Circle (Мэттью Вон / Matthew Vaughn) [2017 г., боевик, комедия, приключения, BDRip] Dub + Sub (Rus) 90ytr90
220 | 12

0 | 871

13

18.02.2018 18:00

Зарубежное кино [DVDRip, Low-Res HDRip, и т.д.] Kingsman: Золотое кольцо / Kingsman: The Golden Circle (Мэттью Вон / Matthew Vaughn) [2017 г., боевик, комедия, приключения, BDRip] Dub 90ytr90
37 | 3

0 | 583

2

18.02.2018 18:05

Зарубежное кино [DVDRip, Low-Res HDRip, и т.д.] Kingsman: Золотое кольцо / Kingsman: The Golden Circle (Мэттью Вон / Matthew Vaughn) [2017 г., боевик, комедия, приключения, HDRip] Dub + hardsub (Rus) 90ytr90
41 | 4

0 | 582

2

18.02.2018 18:22


Яндекс.Метрика powered by Sphinx


В Н И М А Н И Е
Сайт не распространяет и не хранит электронные версии произведений, а лишь бесплатно и без коммерческой выгоды (не требуя взамен платы,
SMS и т.д.) предоставляет доступ к создаваемому пользователями каталогу ссылок на торрент-файлы, которые содержат только списки хеш-сумм.
Убедительная просьба с жалобами обращаться напрямую к пользователю, разместившему торрент файл.

Вверх