Loading...
Error

(Pop) Justin Timberlake - Man of the Woods (2018) [FLAC (Tracks+.Cue), Lossless]

Статистика раздачи
Размер:  422 MB   |    Зарегистрирован:  5 месяцев 13 дней   |    Скачан:  10 раз
Сидов:  1  |  0 KB/s  ]   Личеров:  0  |  0 KB/s  ]

* - сиды/пиры с внешних источников

   
 
Автор Сообщение

Бишеп Пол:Муж

05-Мар-2018 16:24

Justin Timberlake - Man of the Woods

Жанр: Pop
Год выпуска: 2018
Источник: CD
Производитель диска: RCA - 19075-81321-2
Аудиокодек: FLAC
Тип рипа: Tracks+.CUE
Битрейт аудио: lossless
Продолжительность: 01:05:54


Треклист:
01. Filthy (04:53)
02. Midnight Summer Jam (05:12)
03. Sauce (04:05)
04. Man of the Woods (04:03)
05. Higher Higher (04:18)
06. Wave (04:24)
07. Supplies (03:45)
08. Morning Light (feat. Alicia Keys) (04:03)
09. Say Something (feat. Chris Stapleton) (04:38)
10. Hers (Interlude) (01:01)
11. Flannel (04:49)
12. Montana (04:39)
13. Breeze Off the Pond (04:11)
14. Livin' Off the Land (04:53)
15. The Hard Stuff (03:15)
16. Young Man (03:45)

Код:

Exact Audio Copy V1.3 from 2. September 2016

EAC extraction logfile from 4. February 2018, 9:01

Justin Timberlake / Man of the Woods

Used drive  : TSSTcorpDVD-ROM SN-108BB   Adapter: 1  ID: 0

Read mode               : Secure
Utilize accurate stream : Yes
Defeat audio cache      : Yes
Make use of C2 pointers : No

Read offset correction                      : 6
Overread into Lead-In and Lead-Out          : No
Fill up missing offset samples with silence : Yes
Delete leading and trailing silent blocks   : No
Null samples used in CRC calculations       : Yes
Used interface                              : Native Win32 interface for Win NT & 2000
Gap handling                                : Appended to previous track

Used output format              : User Defined Encoder
Selected bitrate                : 1024 kBit/s
Quality                         : High
Add ID3 tag                     : No
Command line compressor         : C:\flac-1.3.2-win\win64\flac.exe
Additional command line options : -8 -e -V -T "ARTIST=%artist%" -T "TITLE=%title%" -T "ALBUM=%albumtitle%" -T "DATE=%year%" -T "TRACKNUMBER=%tracknr%" -T "GENRE=%genre%" -T "PERFORMER=%albuminterpret%" -T "COMPOSER=%composer%" %haslyrics%--tag-from-file=LYRICS="%lyricsfile%"%haslyrics% -T "ALBUMARTIST=%albumartist%" -T "DISCNUMBER=%cdnumber%" -T "TOTALDISCS=%totalcds%" -T "TOTALTRACKS=%numtracks%" -T "COMMENT=%comment%" %source% -o %dest%

TOC of the extracted CD

     Track |   Start  |  Length  | Start sector | End sector
    ---------------------------------------------------------
        1  |  0:00.00 |  4:53.71 |         0    |    22045   
        2  |  4:53.71 |  5:12.40 |     22046    |    45485   
        3  | 10:06.36 |  4:05.06 |     45486    |    63866   
        4  | 14:11.42 |  4:03.74 |     63867    |    82165   
        5  | 18:15.41 |  4:18.38 |     82166    |   101553   
        6  | 22:34.04 |  4:24.26 |    101554    |   121379   
        7  | 26:58.30 |  3:45.45 |    121380    |   138299   
        8  | 30:44.00 |  4:03.03 |    138300    |   156527   
        9  | 34:47.03 |  4:38.67 |    156528    |   177444   
       10  | 39:25.70 |  1:01.28 |    177445    |   182047   
       11  | 40:27.23 |  4:49.59 |    182048    |   203781   
       12  | 45:17.07 |  4:39.68 |    203782    |   224774   
       13  | 49:57.00 |  4:11.07 |    224775    |   243606   
       14  | 54:08.07 |  4:53.42 |    243607    |   265623   
       15  | 59:01.49 |  3:15.29 |    265624    |   280277   
       16  | 62:17.03 |  3:45.53 |    280278    |   297205   

Track  1

     Filename C:\Justin Timberlake - Man Of The Woods (2018) [CD - FLAC] {RCA Records - 19075813212}\01 - Filthy.wav

     Pre-gap length  0:00:02.00

     Peak level 100.0 %
     Extraction speed 2.9 X
     Track quality 100.0 %
     Test CRC 4E0570C4
     Copy CRC 4E0570C4
     Track not present in AccurateRip database
     Copy OK

Track  2

     Filename C:\Justin Timberlake - Man Of The Woods (2018) [CD - FLAC] {RCA Records - 19075813212}\02 - Midnight Summer Jam.wav

     Peak level 100.0 %
     Extraction speed 3.2 X
     Track quality 100.0 %
     Test CRC 284276C9
     Copy CRC 284276C9
     Track not present in AccurateRip database
     Copy OK

Track  3

     Filename C:\Justin Timberlake - Man Of The Woods (2018) [CD - FLAC] {RCA Records - 19075813212}\03 - Sauce.wav

     Peak level 100.0 %
     Extraction speed 3.5 X
     Track quality 100.0 %
     Test CRC 465F9B5D
     Copy CRC 465F9B5D
     Track not present in AccurateRip database
     Copy OK

Track  4

     Filename C:\Justin Timberlake - Man Of The Woods (2018) [CD - FLAC] {RCA Records - 19075813212}\04 - Man of the Woods.wav

     Peak level 100.0 %
     Extraction speed 3.0 X
     Track quality 99.9 %
     Test CRC 73364766
     Copy CRC 73364766
     Track not present in AccurateRip database
     Copy OK

Track  5

     Filename C:\Justin Timberlake - Man Of The Woods (2018) [CD - FLAC] {RCA Records - 19075813212}\05 - Higher Higher.wav

     Peak level 100.0 %
     Extraction speed 3.9 X
     Track quality 100.0 %
     Test CRC 03B5CDEC
     Copy CRC 03B5CDEC
     Track not present in AccurateRip database
     Copy OK

Track  6

     Filename C:\Justin Timberlake - Man Of The Woods (2018) [CD - FLAC] {RCA Records - 19075813212}\06 - Wave.wav

     Peak level 100.0 %
     Extraction speed 4.2 X
     Track quality 100.0 %
     Test CRC DAC4C822
     Copy CRC DAC4C822
     Track not present in AccurateRip database
     Copy OK

Track  7

     Filename C:\Justin Timberlake - Man Of The Woods (2018) [CD - FLAC] {RCA Records - 19075813212}\07 - Supplies.wav

     Peak level 100.0 %
     Extraction speed 4.3 X
     Track quality 100.0 %
     Test CRC 1BC3BC69
     Copy CRC 1BC3BC69
     Track not present in AccurateRip database
     Copy OK

Track  8

     Filename C:\Justin Timberlake - Man Of The Woods (2018) [CD - FLAC] {RCA Records - 19075813212}\08 - Morning Light (Feat. Alicia Keys).wav

     Peak level 100.0 %
     Extraction speed 3.6 X
     Track quality 99.9 %
     Test CRC 866BB032
     Copy CRC 866BB032
     Track not present in AccurateRip database
     Copy OK

Track  9

     Filename C:\Justin Timberlake - Man Of The Woods (2018) [CD - FLAC] {RCA Records - 19075813212}\09 - Say Something (Feat. Chris Stapleton).wav

     Peak level 100.0 %
     Extraction speed 3.9 X
     Track quality 99.9 %
     Test CRC 8CBCF3CD
     Copy CRC 8CBCF3CD
     Track not present in AccurateRip database
     Copy OK

Track 10

     Filename C:\Justin Timberlake - Man Of The Woods (2018) [CD - FLAC] {RCA Records - 19075813212}\10 - Hers (Interlude).wav

     Peak level 76.8 %
     Extraction speed 2.0 X
     Track quality 99.8 %
     Test CRC F3726F4A
     Copy CRC F3726F4A
     Track not present in AccurateRip database
     Copy OK

Track 11

     Filename C:\Justin Timberlake - Man Of The Woods (2018) [CD - FLAC] {RCA Records - 19075813212}\11 - Flannel.wav

     Peak level 100.0 %
     Extraction speed 4.9 X
     Track quality 100.0 %
     Test CRC F41DDC40
     Copy CRC F41DDC40
     Track not present in AccurateRip database
     Copy OK

Track 12

     Filename C:\Justin Timberlake - Man Of The Woods (2018) [CD - FLAC] {RCA Records - 19075813212}\12 - Montana.wav

     Peak level 100.0 %
     Extraction speed 5.1 X
     Track quality 100.0 %
     Test CRC 5DF6BAB9
     Copy CRC 5DF6BAB9
     Track not present in AccurateRip database
     Copy OK

Track 13

     Filename C:\Justin Timberlake - Man Of The Woods (2018) [CD - FLAC] {RCA Records - 19075813212}\13 - Breeze Off the Pond.wav

     Peak level 100.0 %
     Extraction speed 5.2 X
     Track quality 100.0 %
     Test CRC 8F4A30C7
     Copy CRC 8F4A30C7
     Track not present in AccurateRip database
     Copy OK

Track 14

     Filename C:\Justin Timberlake - Man Of The Woods (2018) [CD - FLAC] {RCA Records - 19075813212}\14 - Livin' Off the Land.wav

     Peak level 100.0 %
     Extraction speed 5.4 X
     Track quality 100.0 %
     Test CRC 915267AB
     Copy CRC 915267AB
     Track not present in AccurateRip database
     Copy OK

Track 15

     Filename C:\Justin Timberlake - Man Of The Woods (2018) [CD - FLAC] {RCA Records - 19075813212}\15 - The Hard Stuff.wav

     Peak level 100.0 %
     Extraction speed 5.3 X
     Track quality 100.0 %
     Test CRC 7A157689
     Copy CRC 7A157689
     Track not present in AccurateRip database
     Copy OK

Track 16

     Filename C:\Justin Timberlake - Man Of The Woods (2018) [CD - FLAC] {RCA Records - 19075813212}\16 - Young Man.wav

     Peak level 100.0 %
     Extraction speed 5.5 X
     Track quality 100.0 %
     Test CRC 72191282
     Copy CRC 72191282
     Track not present in AccurateRip database
     Copy OK

None of the tracks are present in the AccurateRip database

No errors occurred

End of status report

---- CUETools DB Plugin V2.1.6

[CTDB TOCID: eVecmF_ngxiLy.5DSqPFr_76qGY-] database access error: The remote name could not be resolved: 'db.cuetools.net'

==== Log checksum 9DABF442ACECEE82D78117E9EA2BA7BD26E2BA82A6EFA6DFBEF42E090C710D88 ====

Код:

REM GENRE Pop
REM DATE 2018
REM DISCID 020F7A10
REM COMMENT "ExactAudioCopy v1.3"
PERFORMER "Justin Timberlake"
TITLE "Man of the Woods"
REM COMPOSER ""
FILE "01 - Filthy.wav" WAVE
  TRACK 01 AUDIO
    TITLE "Filthy"
    PERFORMER "Justin Timberlake"
    REM COMPOSER ""
    ISRC USRC11702778
    FLAGS DCP
    INDEX 01 00:00:00
FILE "02 - Midnight Summer Jam.wav" WAVE
  TRACK 02 AUDIO
    TITLE "Midnight Summer Jam"
    PERFORMER "Justin Timberlake"
    REM COMPOSER ""
    ISRC USRC11703494
    FLAGS DCP
    INDEX 01 00:00:00
FILE "03 - Sauce.wav" WAVE
  TRACK 03 AUDIO
    TITLE "Sauce"
    PERFORMER "Justin Timberlake"
    REM COMPOSER ""
    ISRC USRC11703496
    FLAGS DCP
    INDEX 01 00:00:00
FILE "04 - Man of the Woods.wav" WAVE
  TRACK 04 AUDIO
    TITLE "Man of the Woods"
    PERFORMER "Justin Timberlake"
    REM COMPOSER ""
    ISRC USRC11703497
    FLAGS DCP
    INDEX 01 00:00:00
FILE "05 - Higher Higher.wav" WAVE
  TRACK 05 AUDIO
    TITLE "Higher Higher"
    PERFORMER "Justin Timberlake"
    REM COMPOSER ""
    ISRC USRC11703499
    FLAGS DCP
    INDEX 01 00:00:00
FILE "06 - Wave.wav" WAVE
  TRACK 06 AUDIO
    TITLE "Wave"
    PERFORMER "Justin Timberlake"
    REM COMPOSER ""
    ISRC USRC11703500
    FLAGS DCP
    INDEX 01 00:00:00
FILE "07 - Supplies.wav" WAVE
  TRACK 07 AUDIO
    TITLE "Supplies"
    PERFORMER "Justin Timberlake"
    REM COMPOSER ""
    ISRC USRC11702976
    FLAGS DCP
    INDEX 01 00:00:00
FILE "08 - Morning Light (Feat. Alicia Keys).wav" WAVE
  TRACK 08 AUDIO
    TITLE "Morning Light (Feat. Alicia Keys)"
    PERFORMER "Justin Timberlake"
    REM COMPOSER ""
    ISRC USRC11703502
    FLAGS DCP
    INDEX 01 00:00:00
FILE "09 - Say Something (Feat. Chris Stapleton).wav" WAVE
  TRACK 09 AUDIO
    TITLE "Say Something (Feat. Chris Stapleton)"
    PERFORMER "Justin Timberlake"
    REM COMPOSER ""
    ISRC USRC11703503
    FLAGS DCP
    INDEX 01 00:00:00
FILE "10 - Hers (Interlude).wav" WAVE
  TRACK 10 AUDIO
    TITLE "Hers (Interlude)"
    PERFORMER "Justin Timberlake"
    REM COMPOSER ""
    ISRC USRC11703504
    FLAGS DCP
    INDEX 01 00:00:00
FILE "11 - Flannel.wav" WAVE
  TRACK 11 AUDIO
    TITLE "Flannel"
    PERFORMER "Justin Timberlake"
    REM COMPOSER ""
    ISRC USRC11703504
    FLAGS DCP
    INDEX 01 00:00:00
FILE "12 - Montana.wav" WAVE
  TRACK 12 AUDIO
    TITLE "Montana"
    PERFORMER "Justin Timberlake"
    REM COMPOSER ""
    ISRC USRC11703506
    FLAGS DCP
    INDEX 01 00:00:00
FILE "13 - Breeze Off the Pond.wav" WAVE
  TRACK 13 AUDIO
    TITLE "Breeze Off the Pond"
    PERFORMER "Justin Timberlake"
    REM COMPOSER ""
    ISRC USRC11703508
    FLAGS DCP
    INDEX 01 00:00:00
FILE "14 - Livin' Off the Land.wav" WAVE
  TRACK 14 AUDIO
    TITLE "Livin' Off the Land"
    PERFORMER "Justin Timberlake"
    REM COMPOSER ""
    ISRC USRC11703509
    FLAGS DCP
    INDEX 01 00:00:00
FILE "15 - The Hard Stuff.wav" WAVE
  TRACK 15 AUDIO
    TITLE "The Hard Stuff"
    PERFORMER "Justin Timberlake"
    REM COMPOSER ""
    ISRC USRC11703510
    FLAGS DCP
    INDEX 01 00:00:00
FILE "16 - Young Man.wav" WAVE
  TRACK 16 AUDIO
    TITLE "Young Man"
    PERFORMER "Justin Timberlake"
    REM COMPOSER ""
    ISRC USRC11703511
    FLAGS DCP
    INDEX 01 00:00:00

Этот торрент недоступен для скачивания без регистрации, однако доступен по публичной magnet-ссылке (источники с публичных трекеров). Перед использованием ссылки прочтите, пожалуйста Пользовательское соглашение, а также как можно дольше оставайтесь на раздаче! Для того, чтобы скачать сам торрент-файл (который видит больше источников), а также для того, чтобы поблагодарить релизера, вам необходимо зарегистрироваться. Если регистрироваться лень - вы можете также попробовать скачать релиз по нашим партнерским ссылкам ниже. Кроме того, зарегистрированным пользователям не показывается всплывающая реклама при скачивании.

[underverse.me].t99071.torrent
Трекер: Зарегистрирован   [ 05.03.2018 16:24 ]  

Статус: проверено (by Бишеп at 05.03.2018 16:24)
Поблагодарили: пока никто не поблагодарил...
Тип торрента: публичный - доступные источники с открытых трекеров: 
Размер: 422 MB (занимает 0,09 DVDR, для записи нужно 1 болванка DVDR/RW)
 
 

Яндекс.Метрика powered by Sphinx


В Н И М А Н И Е
Сайт не распространяет и не хранит электронные версии произведений, а лишь бесплатно и без коммерческой выгоды (не требуя взамен платы,
SMS и т.д.) предоставляет доступ к создаваемому пользователями каталогу ссылок на торрент-файлы, которые содержат только списки хеш-сумм.
Убедительная просьба с жалобами обращаться напрямую к пользователю, разместившему торрент файл.

Вверх