Loading...
Error

Дикий / Braven (Лин Одинг / Lin Oeding) [2018 г., боевик, драма, BDRemux 1080p] MVO (HDrezka Studio) + Original (Eng)

Статистика раздачи
Размер:  15,72 GB   |    Зарегистрирован:  5 месяцев 12 дней   |    Скачан:  5 раз

Полного источника не было: 2 месяца 3 дня

Сидов:  0  |  0 KB/s  ]   Личеров:  0  |  0 KB/s  ]

* - сиды/пиры с внешних источников

   
 
Автор Сообщение

90ytr90 

08-Мар-2018 06:37

Дикий / Braven
«Они заставили его перейти черту»

Страна: Канада
Год выпуска: 2018
Жанр: боевик, драма
Продолжительность: 01:33:36
Озвучивание:
  • любительское (многоголосое закадровое) [HDrezka Studio]
  • оригинальная звуковая дорожка [английский]

Режиссёр: Лин Одинг / Lin Oeding

В ролях: Джейсон Момоа, Джилл Вагнер, Стивен Лэнг, Гаррет Диллахант, Занн МаКларнон, Сала Бэйкер, Тич Грант, Брендан Флетчер, Саша Россоф, Фрейзер Айтчесон


Сюжет фильма:
Лесник Джо Брейвен живет с семьей в горах на границе США и Канады. Однажды его тихую и размеренную жизнь нарушает опасная банда наркоторговцев, которая еще не знает, что эта часть лесной глуши занята. И занята не дикими животными, а сильным и бескомпромиссным человеком, ради семьи готовым на все...

  • Дата мировой премьеры: 24 января 2018
  • Дата российской премьеры: 22 февраля 2018, «MEGOGO Distribution»
             
Качество видео: BDRemux 1080p
Формат: MKV
Видео: AVC, 1920x1080 (16:9), 19.6 Mbps, 23.976 (24000/1001) fps, 0.395 bit/pixel
Аудио #1: AC3, 384 kbps, 2 ch, 48 kHz, MVO [HDrezka Studio]
Аудио #2: DTS, 4039/1509 kbps, 6 ch, 48 kHz, Original [English]
Навигация по главам: есть ( 8 )

Сборка: Silverok

General
Unique ID : 76356888653400250681688956891317630796 (0x3971CD44D902F2A5222FC7A57DCF774C)
Complete name : D:uTorrentDikiy.2018.BDRemux.1080p.MediaClub.mkv
Format : Matroska
Format version : Version 4 / Version 2
File size : 15.7 GiB
Duration : 1 h 33 min
Overall bit rate mode : Variable
Overall bit rate : 24.0 Mb/s
Encoded date : UTC 2018-03-07 21:53:51
Writing application : mkvmerge v19.0.0 ('Brave Captain') 64-bit
Writing library : libebml v1.3.5 + libmatroska v1.4.8
Cover : Yes
Attachments : cover.jpg

Video
ID : 1
Format : AVC
Format/Info : Advanced Video Codec
Format profile : High@L4.1
Format settings : CABAC / 4 Ref Frames
Format settings, CABAC : Yes
Format settings, RefFrames : 4 frames
Codec ID : V_MPEG4/ISO/AVC
Duration : 1 h 33 min
Bit rate mode : Variable
Bit rate : 19.6 Mb/s
Maximum bit rate : 35.0 Mb/s
Width : 1 920 pixels
Height : 1 080 pixels
Display aspect ratio : 16:9
Frame rate mode : Constant
Frame rate : 23.976 (24000/1001) FPS
Standard : NTSC
Color space : YUV
Chroma subsampling : 4:2:0
Bit depth : 8 bits
Scan type : Progressive
Bits/(Pixel*Frame) : 0.395
Stream size : 12.8 GiB (82%)
Title : BDRemux by Silverok
Default : Yes
Forced : No
Color range : Limited
Color primaries : BT.709
Transfer characteristics : BT.709
Matrix coefficients : BT.709

Audio #1
ID : 2
Format : AC-3
Format/Info : Audio Coding 3
Codec ID : A_AC3
Duration : 1 h 33 min
Bit rate mode : Constant
Bit rate : 384 kb/s
Channel(s) : 2 channels
Channel positions : Front: L R
Sampling rate : 48.0 kHz
Frame rate : 31.250 FPS (1536 SPF)
Bit depth : 16 bits
Compression mode : Lossy
Stream size : 257 MiB (2%)
Title : Любительский многоголосый (HDrezka Studio)
Language : Russian
Service kind : Complete Main
Default : Yes
Forced : No

Audio #2
ID : 3
Format : DTS
Format/Info : Digital Theater Systems
Format profile : MA / Core
Codec ID : A_DTS
Duration : 1 h 33 min
Bit rate mode : Variable / Constant
Bit rate : 4 039 kb/s / 1 509 kb/s
Channel(s) : 6 channels
Channel positions : Front: L C R, Side: L R, LFE
Sampling rate : 48.0 kHz
Frame rate : 93.750 FPS (512 SPF)
Bit depth : 24 bits
Compression mode : Lossless / Lossy
Stream size : 2.64 GiB (17%)
Language : English
Default : No
Forced : No

Menu
00:00:00.000 : en:Chapter 1
00:14:01.591 : en:Chapter 2
00:28:18.572 : en:Chapter 3
00:41:32.990 : en:Chapter 4
00:50:55.302 : en:Chapter 5
01:03:18.211 : en:Chapter 6
01:19:35.562 : en:Chapter 7
01:29:20.313 : en:Chapter 8


pic pic pic
Для увеличения картинки щелкните мышкой по превью



pic pic pic pic pic pic pic pic

Этот торрент недоступен для скачивания без регистрации, однако доступен по публичной magnet-ссылке (источники с публичных трекеров). Перед использованием ссылки прочтите, пожалуйста Пользовательское соглашение, а также как можно дольше оставайтесь на раздаче! Для того, чтобы скачать сам торрент-файл (который видит больше источников), а также для того, чтобы поблагодарить релизера, вам необходимо зарегистрироваться. Если регистрироваться лень - вы можете также попробовать скачать релиз по нашим партнерским ссылкам ниже. Кроме того, зарегистрированным пользователям не показывается всплывающая реклама при скачивании.

[underverse.me].t99345.torrent
Трекер: Зарегистрирован   [ 08.03.2018 06:37 ]  

Статус: проверено (by 90ytr90 at 23.07.2018 08:07)
Поблагодарили: пока никто не поблагодарил...
Тип торрента: публичный - доступные источники с открытых трекеров: 
Размер: 15,72 GB (занимает 3,59 DVDR, для записи нужно 4 болванки DVDR/RW)
 
 
Похожие темы
Форум Тема Автор Торрент Отв. Посл. сооб.
T Зарубежное кино [DVDRip, Low-Res HDRip, и т.д.] Дикий / Braven (Лин Одинг) [2018 г., боевик, WEB-DLRip] MVO (@MUZOBOZ@) makkol
107 | 6

0 | 905

58

03.02.2018 21:15

Зарубежное кино [DVDRip, Low-Res HDRip, и т.д.] Дикий / Braven (Лин Одинг / Lin Oeding) [2018 г., боевик, драма, WEB-DLRip] MVO (HDrezka Studio) 90ytr90
2 | 0

0 | 295

8

24.02.2018 19:41

Зарубежное кино [DVDRip, Low-Res HDRip, и т.д.] Дикий / Braven (Лин Одинг / Lin Oeding) [2018 г., боевик, драма, BDRip] Dub 90ytr90
45 | 1

0 | 212

11

21.05.2018 18:07

Зарубежное кино [DVDRip, Low-Res HDRip, и т.д.] Дикий / Braven (Лин Одинг / Lin Oeding) [2018 г., боевик, драма, BDRip] Dub 90ytr90
19 | 0

0 | 211

2

21.05.2018 18:09

Зарубежное кино [DVDRip, Low-Res HDRip, и т.д.] Дикий / Braven (Лин Одинг / Lin Oeding) [2018 г., боевик, драма, BDRip-AVC] Dub + Sub (Rus) 90ytr90
45 | 9

0 | 220

4

21.05.2018 18:14

T Зарубежное кино [DVD / HDDVD / BD / Remux] Дикий / Braven (Лин Одинг / Lin Oeding) [2018 г., боевик, драма, BDRemux 1080p] Dub (iTunes) + Original (Eng) + Sub (Rus, Eng) 90ytr90
3 | 1

0 | 355

18

29.03.2018 04:08

% Зарубежное кино [DVD / HDDVD / BD / Remux] Дикий / Braven (Лин Одинг / Lin Oeding) [2018 г., боевик, драма, BDRemux 1080p] Dub + AVO (Чадов) + Original (Eng) + Sub (Rus, Eng) 90ytr90
2 | 0

0 | 298

5

21.05.2018 18:35

T Зарубежное кино [HDDVDRip / BDRip / WEB-DL / HDTV 1080/720р] Дикий / Braven (Лин Одинг) [2018 г., боевик, WEB-DL 720p] MVO (@MUZOBOZ@) makkol
1 | 0

1 | 1256

44

11.02.2018 10:41

Зарубежное кино [HDDVDRip / BDRip / WEB-DL / HDTV 1080/720р] Дикий / Braven (Лин Одинг / Lin Oeding) [2018 г., боевик, драма, WEB-DL 720p] MVO (HDrezka Studio) + Original (Eng) 90ytr90
25 | 3

0 | 484

10

24.02.2018 19:47

T Зарубежное кино [HDDVDRip / BDRip / WEB-DL / HDTV 1080/720р] Дикий / Braven (Лин Одинг / Lin Oeding) [2018 г., боевик, драма, BDRip 720p] Dub (iTunes) + MVO (HDrezka Studio) + AVO (Чадов) + Original (Eng) 90ytr90
7 | 0

0 | 196

3

29.03.2018 04:11


Яндекс.Метрика powered by Sphinx


В Н И М А Н И Е
Сайт не распространяет и не хранит электронные версии произведений, а лишь бесплатно и без коммерческой выгоды (не требуя взамен платы,
SMS и т.д.) предоставляет доступ к создаваемому пользователями каталогу ссылок на торрент-файлы, которые содержат только списки хеш-сумм.
Убедительная просьба с жалобами обращаться напрямую к пользователю, разместившему торрент файл.

Вверх