Loading...
Error

мама! / mother! (Даррен Аронофски / Darren Aronofsky) [2017 г., ужасы, триллер, драма, авторское кино, BDRemux 1080p] 2xDub (Rus) + Dub (Ukr) + 3xAVO (Сербин, Володарский, Карповский) + Original (Eng) + Sub (Rus, Eng)

Статистика раздачи
Размер:  38,88 GB   |    Зарегистрирован:  5 месяцев 4 дня   |    Скачан:  0 раз

Полного источника не было: Никогда

Сидов:  0  |  0 KB/s  ]   Личеров:  0  |  0 KB/s  ]

* - сиды/пиры с внешних источников

   
 
Автор Сообщение

90ytr90 

11-Мар-2018 06:45

мама! / mother!
«seeing is believing»

Страна: США
Год выпуска: 2017
Жанр: ужасы, триллер, драма, авторское кино
Продолжительность: 02:01:11
Озвучивание:
  • профессиональное (полное дублирование) [русский (лицензия)]
  • профессиональное (полное дублирование) [русский (iTunes)]
  • авторское (одноголосое закадровое) [Сербин]
  • авторское (одноголосое закадровое) [Володарский]
  • авторское (одноголосое закадровое) [Карповский]
  • профессиональное (полное дублирование) [украинский]
  • оригинальная звуковая дорожка [английский]

Режиссёр: Даррен Аронофски / Darren Aronofsky

В ролях: Дженнифер Лоуренс, Хавьер Бардем, Эд Харрис, Мишель Пфайффер, Брин Глисон, Донал Глисон, Йован Адепо, Патриция Саммерсетт, Эрик Дэвис


Сюжет фильма:
Отношения молодой пары оказываются под угрозой, когда, нарушая безмятежное существование супругов, в их дом заявляются незваные гости...

  • Дата мировой премьеры: 5 сентября 2017
  • Дата российской премьеры: 14 сентября 2017, «Централ Партнершип»
             
Качество видео: BDRemux 1080p
Формат: MKV
Видео: AVC, 1920x1080 (16:9), 28.6 Mbps, 23.976 (24000/1001) fps, 0.575 bit/pixel
Аудио #1: AC3, 448 kbps, 6 ch, 48 kHz, Dub [Russian.лицензия]
Аудио #2: AC3, 384 kbps, 6 ch, 48 kHz, Dub [Russian.iTunes]
Аудио #3: DTS-HD MA, 4151 kbps/1509 kbps, 8 ch/6 ch, 48 kHz, AVO [Сербин]
Аудио #4: DTS-HD MA, 4116 kbps/1509 kbps, 8 ch/6 ch, 48 kHz, AVO [Володарский]
Аудио #5: DTS-HD MA, 4084 kbps/1509 kbps, 8 ch/6 ch, 48 kHz, AVO [Карповский]
Аудио #6: AC3, 192 kbps, 2 ch, 48 kHz, Dub [Ukrainian]
Аудио #7: TrueHD, 7446 kbps, 8 ch, 48 kHz, Original [English]
Субтитры: Russian, English
Навигация по главам: есть (20)



Общее
Уникальный идентификатор : 244241099651407281949214163418731313270 (0xB7BF1FEF6934264BADAE1C9933B0F876)
Полное имя : D:\РЕМУКС!!!!!\Мама! BDRemux..mkv
Формат : Matroska
Версия формата : Version 4 / Version 2
Размер файла : 38,9 Гбайт
Продолжительность : 2 ч. 1 м.
Режим общего битрейта : Переменный
Общий поток : 45,9 Мбит/сек
Название фильма : Мама! BDRemux.thx:SPOMOPS
Дата кодирования : UTC 2018-03-10 16:35:16
Программа кодирования : mkvmerge v8.3.0 ('Over the Horizon') 64bit
Библиотека кодирования : libebml v1.3.1 + libmatroska v1.4.2

Видео
Идентификатор : 1
Формат : AVC
Формат/Информация : Advanced Video Codec
Профиль формата : High@L4.1
Настройки формата : CABAC / 4 Ref Frames
Параметр CABAC формата : Да
Параметр RefFrames формата : 4 кадра
Идентификатор кодека : V_MPEG4/ISO/AVC
Продолжительность : 2 ч. 1 м.
Вид битрейта : Переменный
Битрейт : 28,6 Мбит/сек
Максимальный битрейт : 31,0 Мбит/сек
Ширина : 1920 пикселей
Высота : 1080 пикселей
Соотношение сторон : 16:9
Режим частоты кадров : Постоянный
Частота кадров : 23,976 (24000/1001) кадра/сек
Цветовое пространство : YUV
Субдискретизация насыщенности : 4:2:0
Битовая глубина : 8 бит
Тип развёртки : Прогрессивная
Бит/(Пиксели*Кадры) : 0.575
Размер потока : 24,2 Гбайт (62%)
Язык : English
Default : Да
Forced : Нет

Аудио #1
Идентификатор : 2
Формат : AC-3
Формат/Информация : Audio Coding 3
Идентификатор кодека : A_AC3
Продолжительность : 2 ч. 1 м.
Вид битрейта : Постоянный
Битрейт : 448 Кбит/сек
Каналы : 6 каналов
Расположение каналов : Front: L C R, Side: L R, LFE
Частота : 48,0 КГц
Частота кадров : 31,250 кадров/сек (1536 SPF)
Битовая глубина : 16 бит
Метод сжатия : С потерями
Размер потока : 388 Мбайт (1%)
Заголовок : Русский ас3 - Дубляж - (R5)
Язык : Russian
ServiceKind/String : Complete Main
Default : Да
Forced : Нет

Аудио #2
Идентификатор : 3
Формат : AC-3
Формат/Информация : Audio Coding 3
Идентификатор кодека : A_AC3
Продолжительность : 2 ч. 1 м.
Вид битрейта : Постоянный
Битрейт : 384 Кбит/сек
Каналы : 6 каналов
Расположение каналов : Front: L C R, Side: L R, LFE
Частота : 48,0 КГц
Частота кадров : 31,250 кадров/сек (1536 SPF)
Битовая глубина : 16 бит
Метод сжатия : С потерями
Размер потока : 333 Мбайт (1%)
Заголовок : Русский ас3 - Дубляж (iTunes)
Язык : Russian
ServiceKind/String : Complete Main
Default : Нет
Forced : Нет

Аудио #3
Идентификатор : 4
Формат : DTS
Формат/Информация : Digital Theater Systems
Профиль формата : MA / Core
Идентификатор кодека : A_DTS
Продолжительность : 2 ч. 1 м.
Вид битрейта : Переменный / Постоянный
Битрейт : 4151 Кбит/сек / 1509 Кбит/сек
Каналы : 8 каналов / 6 каналов
Расположение каналов : Front: L C R, Side: L R, Back: L R, LFE / Front: L C R, Side: L R, LFE
Частота : 48,0 КГц
Частота кадров : 93,750 кадра/сек (512 SPF)
Битовая глубина : 24 бит
Метод сжатия : Без потерь / Lossy
Задержка видео : 21 мс.
Размер потока : 3,51 Гбайт (9%)
Заголовок : Русский DTS-HD MA - АП ( Сербин)
Язык : Russian
Default : Нет
Forced : Нет

Аудио #4
Идентификатор : 5
Формат : DTS
Формат/Информация : Digital Theater Systems
Профиль формата : MA / Core
Идентификатор кодека : A_DTS
Продолжительность : 2 ч. 1 м.
Вид битрейта : Переменный / Постоянный
Битрейт : 4116 Кбит/сек / 1509 Кбит/сек
Каналы : 8 каналов / 6 каналов
Расположение каналов : Front: L C R, Side: L R, Back: L R, LFE / Front: L C R, Side: L R, LFE
Частота : 48,0 КГц
Частота кадров : 93,750 кадра/сек (512 SPF)
Битовая глубина : 24 бит
Метод сжатия : Без потерь / Lossy
Задержка видео : 21 мс.
Размер потока : 3,48 Гбайт (9%)
Заголовок : Русский DTS-HD MA - АП (Володарский)
Язык : Russian
Default : Нет
Forced : Нет

Аудио #5
Идентификатор : 6
Формат : DTS
Формат/Информация : Digital Theater Systems
Профиль формата : MA / Core
Идентификатор кодека : A_DTS
Продолжительность : 2 ч. 1 м.
Вид битрейта : Переменный / Постоянный
Битрейт : 4084 Кбит/сек / 1509 Кбит/сек
Каналы : 8 каналов / 6 каналов
Расположение каналов : Front: L C R, Side: L R, Back: L R, LFE / Front: L C R, Side: L R, LFE
Частота : 48,0 КГц
Частота кадров : 93,750 кадра/сек (512 SPF)
Битовая глубина : 24 бит
Метод сжатия : Без потерь / Lossy
Задержка видео : 21 мс.
Размер потока : 3,46 Гбайт (9%)
Заголовок : Русский DTS-HD MA - АП (Карповский)
Язык : Russian
Default : Нет
Forced : Нет

Аудио #6
Идентификатор : 7
Формат : AC-3
Формат/Информация : Audio Coding 3
Идентификатор кодека : A_AC3
Продолжительность : 2 ч. 1 м.
Вид битрейта : Постоянный
Битрейт : 192 Кбит/сек
Каналы : 2 канала
Расположение каналов : Front: L R
Частота : 48,0 КГц
Частота кадров : 31,250 кадров/сек (1536 SPF)
Битовая глубина : 16 бит
Метод сжатия : С потерями
Размер потока : 166 Мбайт (0%)
Заголовок : Украинский ас3 - Дубляж
Язык : Ukrainian
ServiceKind/String : Complete Main
Default : Нет
Forced : Нет

Аудио #7
Идентификатор : 8
Формат : TrueHD
Профиль формата : TrueHD+Atmos / TrueHD
Идентификатор кодека : A_TRUEHD
Продолжительность : 2 ч. 1 м.
Вид битрейта : Переменный
Битрейт : 3918 Кбит/сек
Максимальный битрейт : 7446 Кбит/сек
Каналы : Object Based / 8 каналов
Расположение каналов : Object Based / Front: L C R, Side: L R, Back: L R, LFE
Частота : / 48,0 КГц
Частота кадров : 1200,000 кадров/сек (40 SPF)
Метод сжатия : Без потерь
Размер потока : 3,32 Гбайт (9%)
Заголовок : Английский - Оригинал
Язык : English
Default : Нет
Forced : Нет

Текст #1
Идентификатор : 9
Формат : UTF-8
Идентификатор кодека : S_TEXT/UTF8
Идентификатор кодека/Информация : UTF-8 Plain Text
Продолжительность : 2 ч. 0 м.
Битрейт : 56 бит/сек
ElementCount : 1164
Размер потока : 49,3 Кбайт (0%)
Заголовок : Русские
Язык : Russian
Default : Нет
Forced : Нет

Текст #2
Идентификатор : 10
Формат : UTF-8
Идентификатор кодека : S_TEXT/UTF8
Идентификатор кодека/Информация : UTF-8 Plain Text
Продолжительность : 1 ч. 54 м.
Битрейт : 38 бит/сек
ElementCount : 1290
Размер потока : 32,7 Кбайт (0%)
Заголовок : Английские
Язык : English
Default : Нет
Forced : Нет

Меню
00:00:00.000 : en:00:00:00.000
00:06:22.507 : en:00:06:22.507
00:10:21.079 : en:00:10:21.079
00:15:59.500 : en:00:15:59.500
00:21:37.922 : en:00:21:37.922
00:24:59.415 : en:00:24:59.415
00:31:31.056 : en:00:31:31.056
00:38:29.224 : en:00:38:29.224
00:44:57.028 : en:00:44:57.028
00:49:35.764 : en:00:49:35.764
00:53:43.303 : en:00:53:43.303
01:02:19.694 : en:01:02:19.694
01:08:24.809 : en:01:08:24.809
01:16:52.191 : en:01:16:52.191
01:20:30.909 : en:01:20:30.909
01:28:26.885 : en:01:28:26.885
01:38:08.716 : en:01:38:08.716
01:45:52.638 : en:01:45:52.638
01:49:48.624 : en:01:49:48.624
01:56:21.183 : en:01:56:21.183

Венецианский кинофестиваль, 2017 год
Номинации (1):
Золотой лев


pic pic pic
Для увеличения картинки щелкните мышкой по превью



pic pic pic pic pic pic

Этот торрент недоступен для скачивания без регистрации, однако доступен по публичной magnet-ссылке (источники с публичных трекеров). Перед использованием ссылки прочтите, пожалуйста Пользовательское соглашение, а также как можно дольше оставайтесь на раздаче! Для того, чтобы скачать сам торрент-файл (который видит больше источников), а также для того, чтобы поблагодарить релизера, вам необходимо зарегистрироваться. Если регистрироваться лень - вы можете также попробовать скачать релиз по нашим партнерским ссылкам ниже. Кроме того, зарегистрированным пользователям не показывается всплывающая реклама при скачивании.

[underverse.me].t99685.torrent
Трекер: Зарегистрирован   [ 11.03.2018 06:45 ]  

Статус: проверено (by 90ytr90 at 12.03.2018 09:59)
Поблагодарили: пока никто не поблагодарил...
Тип торрента: публичный - доступные источники с открытых трекеров: 
Размер: 38,88 GB (занимает 8,88 DVDR, для записи нужно 9 болванок DVDR/RW)
 
 
Похожие темы
Форум Тема Автор Торрент Отв. Посл. сооб.
Зарубежное кино [DVDRip, Low-Res HDRip, и т.д.] мама! / mother! (Даррен Аронофски / Darren Aronofsky) [2017 г., ужасы, триллер, драма, авторское кино, BDRip] Dub 90ytr90
11 | 3

0 | 757

21

09.02.2018 17:18

Зарубежное кино [DVDRip, Low-Res HDRip, и т.д.] мама! / mother! (Даррен Аронофски / Darren Aronofsky) [2017 г., ужасы, триллер, драма, авторское кино, BDRip] Dub 90ytr90
81 | 7

0 | 609

10

11.02.2018 08:29

Зарубежное кино [DVDRip, Low-Res HDRip, и т.д.] мама! / mother! (Даррен Аронофски / Darren Aronofsky) [2017 г., ужасы, триллер, драма, авторское кино, HDRip] Dub 90ytr90
5 | 3

0 | 298

3

01.03.2018 08:10

Зарубежное кино [DVD / HDDVD / BD / Remux] мама! / mother! (Даррен Аронофски / Darren Aronofsky) [2017 г., ужасы, триллер, драма, авторское кино, BDRemux 1080p] Dub + Original (Eng) + Sub (Rus, Eng) 90ytr90
5 | 3

0 | 266

2

01.03.2018 08:05

T Зарубежное кино [HDDVDRip / BDRip / WEB-DL / HDTV 1080/720р] Мама! / Mother! (Даррен Аронофски) [2017 г., ужасы, триллер, драма, WEB-DL 1080p] Rus (Dub iTunes) + Ukr (Dub iTunes) + Original + Sub makkol
6 | 0

1 | 781

21

06.12.2017 15:00

Зарубежное кино [HDDVDRip / BDRip / WEB-DL / HDTV 1080/720р] мама! / mother! (Даррен Аронофски / Darren Aronofsky) [2017 г., ужасы, триллер, драма, авторское кино, BDRip 1080p] Dub + Sub (Rus) 90ytr90
65 | 3

0 | 516

8

09.02.2018 16:56

Зарубежное кино [HDDVDRip / BDRip / WEB-DL / HDTV 1080/720р] мама! / mother! (Даррен Аронофски / Darren Aronofsky) [2017 г., ужасы, триллер, драма, авторское кино, BDRip 720p] Dub + Original (Eng) + Sub (Rus, Eng) 90ytr90
9 | 2

0 | 305

5

09.02.2018 17:07

Зарубежное кино [HDDVDRip / BDRip / WEB-DL / HDTV 1080/720р] мама! / mother! (Даррен Аронофски / Darren Aronofsky) [2017 г., ужасы, триллер, драма, авторское кино, BDRip 1080p] Dub + Original (Eng) + Sub (Rus, Eng) 90ytr90
7 | 3

0 | 474

10

09.02.2018 17:10

Зарубежное кино [HDDVDRip / BDRip / WEB-DL / HDTV 1080/720р] мама! / mother! (Даррен Аронофски / Darren Aronofsky) [2017 г., ужасы, триллер, драма, авторское кино, BDRip-AVC] Dub + Original (Eng) + Sub (Rus, Eng) 90ytr90
5 | 3

0 | 494

8

11.02.2018 08:39

Зарубежное кино [HDDVDRip / BDRip / WEB-DL / HDTV 1080/720р] мама! / mother! (Даррен Аронофски / Darren Aronofsky) [2017 г., ужасы, триллер, драма, авторское кино, BDRip 720p] Dub + Original (Eng) + Sub (Rus, Eng) 90ytr90
55 | 4

0 | 458

7

11.03.2018 08:02


Яндекс.Метрика powered by Sphinx


В Н И М А Н И Е
Сайт не распространяет и не хранит электронные версии произведений, а лишь бесплатно и без коммерческой выгоды (не требуя взамен платы,
SMS и т.д.) предоставляет доступ к создаваемому пользователями каталогу ссылок на торрент-файлы, которые содержат только списки хеш-сумм.
Убедительная просьба с жалобами обращаться напрямую к пользователю, разместившему торрент файл.

Вверх