Loading...
Error

Перестрелка / Free Fire (Бен Уитли / Ben Wheatley) [2016 г., боевик, триллер, BDRemux 1080p] 2xDub (Rus, Ukr) + 3xAVO (Визгунов, Немахов, Яроцкий) + Original (Eng) + Sub (Rus, Eng)

Статистика раздачи
Размер:  26,63 GB   |    Зарегистрирован:  5 месяцев 5 дней   |    Скачан:  2 раза

Полного источника не было: 2 дня 5 часов

Сидов:  0  |  0 KB/s  ]   Личеров:  0  |  0 KB/s  ]

* - сиды/пиры с внешних источников

   
 
Автор Сообщение

90ytr90 

11-Мар-2018 10:47

Перестрелка / Free Fire
«All guns. No control»

Страна: Великобритания
Год выпуска: 2016
Жанр: боевик, триллер
Продолжительность: 01:30:34
Озвучивание:
  • профессиональное (полное дублирование) [русский (лицензия)]
  • авторское (одноголосое закадровое) [Визгунов]
  • авторское (одноголосое закадровое) [Немахов]
  • авторское (одноголосое закадровое) [Яроцкий, без цензуры]
  • профессиональное (полное дублирование) [украинский]
  • оригинальная звуковая дорожка [английский]

Режиссёр: Бен Уитли / Ben Wheatley

В ролях: Энцо Чиленти (Bernie), Сэм Райли (Stevo), Майкл Смайли (Frank), Бри Ларсон (Justine), Киллиан Мёрфи (Chris), Арми Хаммер (Ord), Шарлто Копли (Vernon), Бабу Сизей (Martin), Ноа Тейлор (Gordon), Джек Рейнор (Harry), Марк Монеро (Jimmy), Патрик Бергин (Howie)


Сюжет фильма:
Когда подпольная сделка по продаже оружия феерически летит под откос, целый склад превращается в масштабное поле битвы. Слова закончились, и заговорили стволы. Приз в игре на выживание — кейс с большой суммой денег, но унести его не так просто. Здесь вооружены все, каждый сам за себя, а хаос правит бал.

  • Дата мировой премьеры: 8 сентября 2016
  • Дата российской премьеры: 27 апреля 2017, «Вольга»
             
Качество видео: BDRemux 1080p
Формат: MKV
Видео: AVC, 1920x1080 (16:9), 22.5 Mbps, 23.976 (24000/1001) fps, 0.452 bit/pixel
Аудио #1: DTS-HD MA, 3658 kbps/1509 kbps, 6 ch, 48 kHz, Dub [Russian.лицензия]
Аудио #2: AC3, 640 kbps, 6 ch, 48 kHz, Dub [Russian.лицензия]
Аудио #3: DTS-HD MA, 3689 kbps/1509 kbps, 6 ch, 48 kHz, AVO [Визгунов]
Аудио #4: DTS-HD MA, 3840 kbps/1509 kbps, 6 ch, 48 kHz, AVO [Немахов]
Аудио #5: DTS-HD MA, 3840 kbps/1509 kbps, 6 ch, 48 kHz, AVO [Яроцкий, без цензуры]
Аудио #6: AC3, 384 kbps, 6 ch, 44.1 kHz, Dub [Ukrainian]
Аудио #7: DTS-HD MA, 3720 kbps/1509 kbps, 6 ch, 48 kHz, Original [English]
Субтитры: Russian (full), English (SDH-Colored)
Навигация по главам: есть (16)



Общее
Уникальный идентификатор : 212700923820647441887045126430105343027 (0xA004B534E76E06CCA112D86B08851433)
Полное имя : D:\РЕМУКС!!!!!\Перестрелка.BDRemux.mkv
Формат : Matroska
Версия формата : Version 4 / Version 2
Размер файла : 26,6 Гбайт
Продолжительность : 1 ч. 30 м.
Режим общего битрейта : Переменный
Общий поток : 42,1 Мбит/сек
Название фильма : Перестрелка.BDRemux.thx:SPOMOPS
Дата кодирования : UTC 2018-03-11 08:03:21
Программа кодирования : mkvmerge v8.3.0 ('Over the Horizon') 64bit
Библиотека кодирования : libebml v1.3.1 + libmatroska v1.4.2

Видео
Идентификатор : 1
Формат : AVC
Формат/Информация : Advanced Video Codec
Профиль формата : High@L4.1
Настройки формата : CABAC / 4 Ref Frames
Параметр CABAC формата : Да
Параметр RefFrames формата : 4 кадра
Идентификатор кодека : V_MPEG4/ISO/AVC
Продолжительность : 1 ч. 30 м.
Вид битрейта : Переменный
Битрейт : 22,5 Мбит/сек
Максимальный битрейт : 37,0 Мбит/сек
Ширина : 1920 пикселей
Высота : 1080 пикселей
Соотношение сторон : 16:9
Режим частоты кадров : Постоянный
Частота кадров : 23,976 (24000/1001) кадра/сек
Цветовое пространство : YUV
Субдискретизация насыщенности : 4:2:0
Битовая глубина : 8 бит
Тип развёртки : Прогрессивная
Бит/(Пиксели*Кадры) : 0.452
Размер потока : 14,2 Гбайт (53%)
Заголовок : MPEG-4 AVC ,22500 kbps / 1920x1080 / 23,976 fps
Язык : English
Default : Да
Forced : Нет

Аудио #1
Идентификатор : 2
Формат : DTS
Формат/Информация : Digital Theater Systems
Профиль формата : MA / Core
Идентификатор кодека : A_DTS
Продолжительность : 1 ч. 30 м.
Вид битрейта : Переменный / Постоянный
Битрейт : 3658 Кбит/сек / 1509 Кбит/сек
Каналы : 6 каналов
Расположение каналов : Front: L C R, Side: L R, LFE
Частота : 48,0 КГц
Частота кадров : 93,750 кадра/сек (512 SPF)
Битовая глубина : 24 бит
Метод сжатия : Без потерь / Lossy
Размер потока : 2,31 Гбайт (9%)
Заголовок : Русский DTS-HD MA - Дубляж
Язык : Russian
Default : Да
Forced : Нет

Аудио #2
Идентификатор : 3
Формат : AC-3
Формат/Информация : Audio Coding 3
Идентификатор кодека : A_AC3
Продолжительность : 1 ч. 30 м.
Вид битрейта : Постоянный
Битрейт : 640 Кбит/сек
Каналы : 6 каналов
Расположение каналов : Front: L C R, Side: L R, LFE
Частота : 48,0 КГц
Частота кадров : 31,250 кадров/сек (1536 SPF)
Битовая глубина : 16 бит
Метод сжатия : С потерями
Размер потока : 414 Мбайт (2%)
Заголовок : Русский ас3 - Дубляж
Язык : Russian
ServiceKind/String : Complete Main
Default : Нет
Forced : Нет

Аудио #3
Идентификатор : 4
Формат : DTS
Формат/Информация : Digital Theater Systems
Профиль формата : MA / Core
Идентификатор кодека : A_DTS
Продолжительность : 1 ч. 30 м.
Вид битрейта : Переменный / Постоянный
Битрейт : 3689 Кбит/сек / 1509 Кбит/сек
Каналы : 6 каналов
Расположение каналов : Front: L C R, Side: L R, LFE
Частота : 48,0 КГц
Частота кадров : 93,750 кадра/сек (512 SPF)
Битовая глубина : 24 бит
Метод сжатия : Без потерь / Lossy
Размер потока : 2,33 Гбайт (9%)
Заголовок : Русский DTS-HD MA - АП (Визгунов)
Язык : Russian
Default : Нет
Forced : Нет

Аудио #4
Идентификатор : 5
Формат : DTS
Формат/Информация : Digital Theater Systems
Профиль формата : MA / Core
Идентификатор кодека : A_DTS
Продолжительность : 1 ч. 30 м.
Вид битрейта : Переменный / Постоянный
Битрейт : 3840 Кбит/сек / 1509 Кбит/сек
Каналы : 6 каналов
Расположение каналов : Front: L C R, Side: L R, LFE
Частота : 48,0 КГц
Частота кадров : 93,750 кадра/сек (512 SPF)
Битовая глубина : 24 бит
Метод сжатия : Без потерь / Lossy
Размер потока : 2,38 Гбайт (9%)
Заголовок : Русский DTS-HD MA - АП (Немахов)
Язык : Russian
Default : Нет
Forced : Нет

Аудио #5
Идентификатор : 6
Формат : DTS
Формат/Информация : Digital Theater Systems
Профиль формата : MA / Core
Идентификатор кодека : A_DTS
Продолжительность : 1 ч. 30 м.
Вид битрейта : Переменный / Постоянный
Битрейт : 3840 Кбит/сек / 1509 Кбит/сек
Каналы : 6 каналов
Расположение каналов : Front: L C R, Side: L R, LFE
Частота : 48,0 КГц
Частота кадров : 93,750 кадра/сек (512 SPF)
Битовая глубина : 24 бит
Метод сжатия : Без потерь / Lossy
Размер потока : 2,38 Гбайт (9%)
Заголовок : Русский DTS-HD MA - АП (Яроцкий)
Язык : Russian
Default : Нет
Forced : Нет

Аудио #6
Идентификатор : 7
Формат : AC-3
Формат/Информация : Audio Coding 3
Идентификатор кодека : A_AC3
Продолжительность : 1 ч. 30 м.
Вид битрейта : Постоянный
Битрейт : 384 Кбит/сек
Каналы : 6 каналов
Расположение каналов : Front: L C R, Side: L R, LFE
Частота : 44,1 КГц
Частота кадров : 28,711 кадров/сек (1536 SPF)
Битовая глубина : 16 бит
Метод сжатия : С потерями
Размер потока : 248 Мбайт (1%)
Заголовок : Украинский ас3 - Дубляж
Язык : Ukrainian
ServiceKind/String : Complete Main
Default : Нет
Forced : Нет

Аудио #7
Идентификатор : 8
Формат : DTS
Формат/Информация : Digital Theater Systems
Профиль формата : MA / Core
Идентификатор кодека : A_DTS
Продолжительность : 1 ч. 30 м.
Вид битрейта : Переменный / Постоянный
Битрейт : 3720 Кбит/сек / 1509 Кбит/сек
Каналы : 6 каналов
Расположение каналов : Front: L C R, Side: L R, LFE
Частота : 48,0 КГц
Частота кадров : 93,750 кадра/сек (512 SPF)
Битовая глубина : 24 бит
Метод сжатия : Без потерь / Lossy
Размер потока : 2,35 Гбайт (9%)
Заголовок : Английский DTS-HD MA - Оригинал
Язык : English
Default : Нет
Forced : Нет

Текст #1
Идентификатор : 9
Формат : UTF-8
Идентификатор кодека : S_TEXT/UTF8
Идентификатор кодека/Информация : UTF-8 Plain Text
Продолжительность : 1 ч. 22 м.
Битрейт : 90 бит/сек
ElementCount : 1052
Размер потока : 54,7 Кбайт (0%)
Заголовок : Русские
Язык : Russian
Default : Нет
Forced : Нет

Текст #2
Идентификатор : 10
Формат : UTF-8
Идентификатор кодека : S_TEXT/UTF8
Идентификатор кодека/Информация : UTF-8 Plain Text
Продолжительность : 1 ч. 25 м.
Битрейт : 110 бит/сек
ElementCount : 1463
Размер потока : 68,6 Кбайт (0%)
Заголовок : Английские - SDH Colored
Язык : English
Default : Нет
Forced : Нет

Меню
00:00:00.000 : en:00:00:00.000
00:07:31.368 : en:00:07:31.368
00:09:32.655 : en:00:09:32.655
00:15:12.036 : en:00:15:12.036
00:20:35.693 : en:00:20:35.693
00:27:40.867 : en:00:27:40.867
00:32:48.300 : en:00:32:48.300
00:37:54.022 : en:00:37:54.022
00:43:09.795 : en:00:43:09.795
00:48:48.008 : en:00:48:48.008
00:54:27.639 : en:00:54:27.639
00:59:18.096 : en:00:59:18.096
01:05:36.432 : en:01:05:36.432
01:09:08.102 : en:01:09:08.102
01:15:16.887 : en:01:15:16.887
01:22:35.117 : en:01:22:35.117


pic pic pic
Для увеличения картинки щелкните мышкой по превью



pic pic pic pic pic pic

Этот торрент недоступен для скачивания без регистрации, однако доступен по публичной magnet-ссылке (источники с публичных трекеров). Перед использованием ссылки прочтите, пожалуйста Пользовательское соглашение, а также как можно дольше оставайтесь на раздаче! Для того, чтобы скачать сам торрент-файл (который видит больше источников), а также для того, чтобы поблагодарить релизера, вам необходимо зарегистрироваться. Если регистрироваться лень - вы можете также попробовать скачать релиз по нашим партнерским ссылкам ниже. Кроме того, зарегистрированным пользователям не показывается всплывающая реклама при скачивании.

[underverse.me].t99694.torrent
Трекер: Зарегистрирован   [ 11.03.2018 10:47 ]  

Статус: проверено (by 90ytr90 at 11.03.2018 15:46)
Поблагодарили: пока никто не поблагодарил...
Тип торрента: публичный - доступные источники с открытых трекеров: 
Размер: 26,63 GB (занимает 6,08 DVDR, для записи нужно 7 болванок DVDR/RW)
 
 
Похожие темы
Форум Тема Автор Торрент Отв. Посл. сооб.
Зарубежное кино [DVDRip, Low-Res HDRip, и т.д.] Перестрелка / Free Fire (Бен Уитли / Ben Wheatley) [2016 г., боевик, триллер, BDRip] Dub 90ytr90
13 | 3

0 | 502

8

14.11.2017 07:26

Зарубежное кино [DVDRip, Low-Res HDRip, и т.д.] Перестрелка / Free Fire (Бен Уитли / Ben Wheatley) [2016 г., боевик, триллер, BDRip] AVO (Яроцкий, без цензуры) 90ytr90
5 | 2

0 | 666

6

11.03.2018 11:00

Зарубежное кино [DVDRip, Low-Res HDRip, и т.д.] Перестрелка / Free Fire (Бен Уитли / Ben Wheatley) [2016 г., боевик, триллер, BDRip-AVC] Dub 90ytr90
2 | 4

0 | 650

6

11.03.2018 16:06

Зарубежное кино [DVDRip, Low-Res HDRip, и т.д.] Перестрелка / Free Fire (Бен Уитли / Ben Wheatley) [2016 г., боевик, триллер, BDRip-AVC] Dub + Original (Eng) + Sub (Eng) 90ytr90
18 | 3

0 | 727

6

11.03.2018 16:10

Зарубежное кино [DVDRip, Low-Res HDRip, и т.д.] Перестрелка / Free Fire (Бен Уитли / Ben Wheatley) [2016 г., боевик, триллер, HDRip] Dub 90ytr90
2 | 5

0 | 643

7

11.03.2018 16:14

© Зарубежное кино [HDDVDRip / BDRip / WEB-DL / HDTV 1080/720р] Перестрелка / Free Fire (Бен Уитли) [2016 г., боевик, триллер, криминал, WEB-DL 1080p] MVO (@MUZOBOZ@) makkol
2 | 3
3,47 GB

0 | 668

23

02.06.2017 13:45

© Зарубежное кино [HDDVDRip / BDRip / WEB-DL / HDTV 1080/720р] Перестрелка / Free Fire (Бен Уитли / Ben Wheatley) [2016 г., боевик, триллер, WEB-DL 1080p] Dub (iTunes) + Original (Eng) 90ytr90
7 | 3
3,36 GB

0 | 923

13

03.07.2017 20:00

© Зарубежное кино [HDDVDRip / BDRip / WEB-DL / HDTV 1080/720р] Перестрелка / Free Fire (Бен Уитли / Ben Wheatley) [2016 г., боевик, триллер, WEB-DL 720p] Dub (iTunes) + Original (Eng) 90ytr90
6 | 3
2,62 GB

0 | 824

4

03.07.2017 20:02

© Зарубежное кино [HDDVDRip / BDRip / WEB-DL / HDTV 1080/720р] Перестрелка / Free Fire (Бен Уитли / Ben Wheatley) [2016 г., боевик, триллер, BDRip 720p] Dub (iTunes) + Original (Eng) + Sub (Eng) 90ytr90
3 | 2
3,78 GB

0 | 844

3

08.07.2017 17:10

Зарубежное кино [HDDVDRip / BDRip / WEB-DL / HDTV 1080/720р] Перестрелка / Free Fire (Бен Уитли / Ben Wheatley) [2016 г., боевик, триллер, BDRip 720p] Dub 90ytr90
0 | 3

0 | 592

2

11.03.2018 10:55


Яндекс.Метрика powered by Sphinx


В Н И М А Н И Е
Сайт не распространяет и не хранит электронные версии произведений, а лишь бесплатно и без коммерческой выгоды (не требуя взамен платы,
SMS и т.д.) предоставляет доступ к создаваемому пользователями каталогу ссылок на торрент-файлы, которые содержат только списки хеш-сумм.
Убедительная просьба с жалобами обращаться напрямую к пользователю, разместившему торрент файл.

Вверх