Loading...
Error

Люцифер / Lucifer / Сезон 1 / 1-13 Серии из 13 (Джерри Брукхаймер) [2015 г., драма, детектив, WEB-DLRip 1080p] MVO (NewStudio) + Original

Статистика раздачи
Размер:  23,01 GB   |    Зарегистрирован:  8 месяцев   |    Скачан:  7 раз

Полного источника не было: 10 дней

Сидов:  0  |  0 KB/s  ]   Личеров:  0  |  0 KB/s  ]

* - сиды/пиры с внешних источников

   
 
Автор Сообщение

anvad Пол:Муж

14-Мар-2018 15:11

Люцифер (Сезон 1) (1-13 Серии) / Lucifer (Season 01) NewStudio 1080


Год выпуска: 2015
Жанр: Драма, детектив
Страна: США
Режиссер: Джерри Брукхаймер
В ролях: Том Эллис, Лесли-Энн Брандт, Лорен Джерман, Николас Гонзалес, Рэйчел Харрис, Д. Б. Вудсайт
Сюжет фильма:
Люцифер, эксцентричный Король демонов, заскучал на своем троне и решил посетить Лос-Анджелес, после чего он становится консультантом по расследованию убийств при местном полицейском управлении.

Качество видео: WEB-DLRip 1080p

Продолжительность: ~ 00:43:00
Формат: MKV
Видео: MPEG-4 AVC, 1916x1076 (16:9), ~5000 kbps
Аудио #1: русский, многоголосый закадровый [профессиональный, NewStudio], AC3 2.0, 384kbps
Аудио #2: английский, оригинал, AC3 2.0, 384kbps
Субтитры: тип: вшитые отключаемые, русский,

Код:

Общее
Уникальный идентификатор                 : 240249518022921597379718115286133522014 (0xB4BE5FC44379F304A7725850EEF03E5E)
Формат                                   : Matroska
Версия формата                           : Version 2
Размер файла                             : 1,80 Гбайт
Продолжительность                        : 43 м.
Общий поток                              : 5907 Кбит/сек
Дата кодирования                         : UTC 2016-03-16 18:09:57
Программа кодирования                    : mkvmerge v7.9.0 ('Birds') 64bit
Библиотека кодирования                   : libebml v1.3.1 + libmatroska v1.4.2
DURATION                                 : 00:42:58.048000000
NUMBER_OF_FRAMES                         : 923
NUMBER_OF_BYTES                          : 29456
_STATISTICS_WRITING_APP                  : mkvmerge v7.9.0 ('Birds') 64bit
_STATISTICS_WRITING_DATE_UTC             : 2016-03-16 18:09:57
_STATISTICS_TAGS                         : BPS DURATION NUMBER_OF_FRAMES NUMBER_OF_BYTES
Видео
Идентификатор                            : 1
Формат                                   : AVC
Формат/Информация                        : Advanced Video Codec
Профиль формата                          : High@L4
Параметр CABAC формата                   : Да
Параметр ReFrames формата                : 4 кадра
Идентификатор кодека                     : V_MPEG4/ISO/AVC
Продолжительность                        : 43 м.
Битрейт                                  : 5022 Кбит/сек
Ширина                                   : 1916 пикселей
Высота                                   : 1076 пикселей
Соотношение сторон                       : 16:9
Режим частоты кадров                     : Постоянный
Частота кадров                           : 23,976 кадра/сек
Цветовое пространство                    : YUV
Субдискретизация насыщенности            : 4:2:0
Битовая глубина                          : 8 бит
Тип развёртки                            : Прогрессивная
Бит/(Пиксели*Кадры)                      : 0.102
Размер потока                            : 1,53 Гбайт (85%)
Язык                                     : English
Default                                  : Да
Forced                                   : Нет
Цветовой диапазон                        : Limited
Основные цвета                           : BT.709
Характеристики трансфера                 : BT.709
Коэффициенты матрицы                     : BT.709
Аудио #1
Идентификатор                            : 2
Формат                                   : AC-3
Формат/Информация                        : Audio Coding 3
Расширение режима                        : CM (complete main)
Параметр Endianness формата              : Big
Идентификатор кодека                     : A_AC3
Продолжительность                        : 43 м.
Вид битрейта                             : Постоянный
Битрейт                                  : 384 Кбит/сек
Каналы                                   : 6 каналов
Расположение каналов                     : Front: L C R, Side: L R, LFE
Частота                                  : 48,0 КГц
Метод сжатия                             : С потерями
Размер потока                            : 120 Мбайт (7%)
Язык                                     : Russian
Default                                  : Да
Forced                                   : Нет
Аудио #2
Идентификатор                            : 3
Формат                                   : AC-3
Формат/Информация                        : Audio Coding 3
Расширение режима                        : CM (complete main)
Параметр Endianness формата              : Big
Идентификатор кодека                     : A_AC3
Продолжительность                        : 43 м.
Вид битрейта                             : Постоянный
Битрейт                                  : 384 Кбит/сек
Каналы                                   : 6 каналов
Расположение каналов                     : Front: L C R, Side: L R, LFE
Частота                                  : 48,0 КГц
Метод сжатия                             : С потерями
Размер потока                            : 120 Мбайт (7%)
Язык                                     : English
Default                                  : Нет
Forced                                   : Нет
Текст #1
Идентификатор                            : 4
Формат                                   : UTF-8
Идентификатор кодека                     : S_TEXT/UTF8
Идентификатор кодека/Информация          : UTF-8 Plain Text
Язык                                     : Russian
Default                                  : Нет
Forced                                   : Нет
Текст #2
Идентификатор                            : 5
Формат                                   : UTF-8
Идентификатор кодека                     : S_TEXT/UTF8
Идентификатор кодека/Информация          : UTF-8 Plain Text
Язык                                     : English
Default                                  : Нет
Forced                                   : Нет
Релиз группы:

picpicpicpic
Для увеличения картинки щелкните мышкой по превью

Этот торрент недоступен для скачивания без регистрации, однако доступен по публичной magnet-ссылке (источники с публичных трекеров). Перед использованием ссылки прочтите, пожалуйста Пользовательское соглашение, а также как можно дольше оставайтесь на раздаче! Для того, чтобы скачать сам торрент-файл (который видит больше источников), а также для того, чтобы поблагодарить релизера, вам необходимо зарегистрироваться. Если регистрироваться лень - вы можете также попробовать скачать релиз по нашим партнерским ссылкам ниже. Кроме того, зарегистрированным пользователям не показывается всплывающая реклама при скачивании.

[underverse.me].t99875.torrent
Трекер: Зарегистрирован   [ 14.03.2018 15:11 ]  

Статус: проверено (by Паукан at 14.03.2018 18:52)
Поблагодарили: пока никто не поблагодарил...
Тип торрента: публичный - доступные источники с открытых трекеров: 
Размер: 23,01 GB (занимает 5,26 DVDR, для записи нужно 6 болванок DVDR/RW)
 
 
Похожие темы
Форум Тема Автор Торрент Отв. Посл. сооб.
Зарубежное кино [DVDRip, Low-Res HDRip, и т.д.] Люцифер / Luciferous (Александр Горелик) [2015 г., ужасы, триллер, драма, WEB-DLRip] DVO makkol
1 | 0

0 | 1355

31

16.04.2016 23:23

T Зарубежные сериалы Люцифер / Lucifer / Сезон 1 (1 серия из 13) (Мэтт Эрл Бисли, Нэйтан Хоуп, Тим Мэтисон) [2015 г., фэнтези, HDTVRip] MVO + Original older
6 | 0

0 | 871

8

03.09.2015 05:20

T Зарубежные сериалы Люцифер / Lucifer (1 сезон, серии 1-9 из 13) (Лен Уайзман, Мэтт Эрл Бисли, Эгил Эгилссон) [2016 г., фэнтези, драма, WEB-DLRip] MVO (BaibaKo) + Original Dimashark40
0 | 0

4 | 1712

11

09.04.2016 20:37

Зарубежные сериалы [BD / Remux / BDRip / WEB-DL / HDTV 1080/720р] Люцифер / Lucifer / Season 2 (1-18 серии) (Джерри Брукхаймер) [2016 г., Драма, детектив, WEB-DLRip 1080p] MVO (NewStudio) + Original anvad
0 | 0

0 | 655

0

15.03.2018 14:33


Яндекс.Метрика powered by Sphinx


В Н И М А Н И Е
Сайт не распространяет и не хранит электронные версии произведений, а лишь бесплатно и без коммерческой выгоды (не требуя взамен платы,
SMS и т.д.) предоставляет доступ к создаваемому пользователями каталогу ссылок на торрент-файлы, которые содержат только списки хеш-сумм.
Убедительная просьба с жалобами обращаться напрямую к пользователю, разместившему торрент файл.

Вверх