Loading...
Error

Люцифер / Lucifer / Season 2 (1-18 серии) (Джерри Брукхаймер) [2016 г., Драма, детектив, WEB-DLRip 1080p] MVO (NewStudio) + Original

Статистика раздачи
Размер:  32,83 GB   |    Зарегистрирован:  10 месяцев   |    Скачан:  0 раз

Полного источника не было: 2 месяца 11 дней

Сидов:  0  |  0 KB/s  ]   Личеров:  0  |  0 KB/s  ]

* - сиды/пиры с внешних источников

   
 
Автор Сообщение

anvad Пол:Муж

15-Мар-2018 14:33

Люцифер / Lucifer / Season 2 (1-18 серии)


Год выпуска: 2016
Жанр: Драма, детектив
Страна: США
Режиссер: Джерри Брукхаймер
В ролях: Том Эллис, Лесли-Энн Брандт, Лорен Джерман, Николас Гонзалес, Рэйчел Харрис, Д. Б. Вудсайт
Сюжет фильма:
Заскучавший и несчастный повелитель преисподней, Люцифер Морнингстар оставил свой престол и отправился в современный Лос-Анджелес, где основал ночной клуб «Lux». Очаровательный, харизматичный и дьявольски привлекательный Люцифер наслаждается своим отдыхом — вином, женщинами и музыкой — пока красивая поп-звезда не оказывается убитой на пороге его клуба…

Качество видео: WEB-DLRip 1080p

Продолжительность: ~ 00:43:00
Формат: MKV
Видео: MPEG-4 AVC, 1916x1076 (16:9), ~5000 kbps
Аудио #1: русский, многоголосый закадровый [профессиональный, NewStudio], AC3 5.1, ~384 kbps
Аудио #2: английский, оригинал, AC3 5.1, ~384 kbps

Код:

Общее
Уникальный идентификатор                 : 211638005247129880496951198383912087485 (0x9F37FF465FEDC79DA4B94B56C8C16FBD)
Полное имя                               : X:\ATorrent\Lucifer (Season 02) NewStudio 1080\Lucifer.[S02E01].HD1080p.NewStudio.[qqss44].mkv
Формат                                   : Matroska
Версия формата                           : Version 2
Размер файла                             : 1,84 Гбайт
Продолжительность                        : 43 м.
Общий поток                              : 5997 Кбит/сек
Дата кодирования                         : UTC 2016-09-21 15:38:53
Программа кодирования                    : mkvmerge v7.9.0 ('Birds') 64bit
Библиотека кодирования                   : libebml v1.3.1 + libmatroska v1.4.2
Видео
Идентификатор                            : 1
Формат                                   : AVC
Формат/Информация                        : Advanced Video Codec
Профиль формата                          : High@L4
Параметр CABAC формата                   : Да
Параметр ReFrames формата                : 4 кадра
Идентификатор кодека                     : V_MPEG4/ISO/AVC
Продолжительность                        : 43 м.
Битрейт                                  : 5226 Кбит/сек
Ширина                                   : 1916 пикселей
Высота                                   : 1076 пикселей
Соотношение сторон                       : 16:9
Режим частоты кадров                     : Постоянный
Частота кадров                           : 23,976 (23976/1000) кадра/сек
Цветовое пространство                    : YUV
Субдискретизация насыщенности            : 4:2:0
Битовая глубина                          : 8 бит
Тип развёртки                            : Прогрессивная
Бит/(Пиксели*Кадры)                      : 0.106
Размер потока                            : 1,60 Гбайт (87%)
Язык                                     : English
Default                                  : Да
Forced                                   : Нет
Цветовой диапазон                        : Limited
Основные цвета                           : BT.709
Характеристики трансфера                 : BT.709
Коэффициенты матрицы                     : BT.709
Аудио #1
Идентификатор                            : 2
Формат                                   : AC-3
Формат/Информация                        : Audio Coding 3
Расширение режима                        : CM (complete main)
Параметр Endianness формата              : Big
Идентификатор кодека                     : A_AC3
Продолжительность                        : 43 м.
Вид битрейта                             : Постоянный
Битрейт                                  : 384 Кбит/сек
Каналы                                   : 6 каналов
Расположение каналов                     : Front: L C R, Side: L R, LFE
Частота                                  : 48,0 КГц
Частота кадров                           : 31,250 кадров/сек (1536 spf)
Метод сжатия                             : С потерями
Размер потока                            : 121 Мбайт (6%)
Язык                                     : Russian
Default                                  : Да
Forced                                   : Нет
Аудио #2
Идентификатор                            : 3
Формат                                   : AC-3
Формат/Информация                        : Audio Coding 3
Расширение режима                        : CM (complete main)
Параметр Endianness формата              : Big
Идентификатор кодека                     : A_AC3
Продолжительность                        : 43 м.
Вид битрейта                             : Постоянный
Битрейт                                  : 384 Кбит/сек
Каналы                                   : 6 каналов
Расположение каналов                     : Front: L C R, Side: L R, LFE
Частота                                  : 48,0 КГц
Частота кадров                           : 31,250 кадров/сек (1536 spf)
Метод сжатия                             : С потерями
Размер потока                            : 121 Мбайт (6%)
Язык                                     : English
Default                                  : Нет
Forced                                   : Нет
Релиз группы:

picpicpic
Для увеличения картинки щелкните мышкой по превью

Этот торрент недоступен для скачивания без регистрации, однако доступен по публичной magnet-ссылке (источники с публичных трекеров). Перед использованием ссылки прочтите, пожалуйста Пользовательское соглашение, а также как можно дольше оставайтесь на раздаче! Для того, чтобы скачать сам торрент-файл (который видит больше источников), а также для того, чтобы поблагодарить релизера, вам необходимо зарегистрироваться. Если регистрироваться лень - вы можете также попробовать скачать релиз по нашим партнерским ссылкам ниже. Кроме того, зарегистрированным пользователям не показывается всплывающая реклама при скачивании.

[underverse.me].t99952.torrent
Трекер: Зарегистрирован   [ 15.03.2018 14:33 ]  

Статус: проверено (by makkol at 15.03.2018 21:23)
Поблагодарили: пока никто не поблагодарил...
Тип торрента: публичный - доступные источники с открытых трекеров: 
Размер: 32,83 GB (занимает 7,5 DVDR, для записи нужно 8 болванок DVDR/RW)
 
 
Похожие темы
Форум Тема Автор Торрент Отв. Посл. сооб.
Зарубежное кино [DVDRip, Low-Res HDRip, и т.д.] Люцифер / Luciferous (Александр Горелик) [2015 г., ужасы, триллер, драма, WEB-DLRip] DVO makkol
1 | 0

0 | 1395

31

16.04.2016 23:23

T Зарубежные сериалы Люцифер / Lucifer / Сезон 1 (1 серия из 13) (Мэтт Эрл Бисли, Нэйтан Хоуп, Тим Мэтисон) [2015 г., фэнтези, HDTVRip] MVO + Original older
6 | 0

0 | 902

8

03.09.2015 05:20

T Зарубежные сериалы Люцифер / Lucifer (1 сезон, серии 1-9 из 13) (Лен Уайзман, Мэтт Эрл Бисли, Эгил Эгилссон) [2016 г., фэнтези, драма, WEB-DLRip] MVO (BaibaKo) + Original Dimashark40
0 | 0

4 | 1757

11

09.04.2016 20:37

Зарубежные сериалы [BD / Remux / BDRip / WEB-DL / HDTV 1080/720р] Люцифер / Lucifer / Сезон 1 / 1-13 Серии из 13 (Джерри Брукхаймер) [2015 г., драма, детектив, WEB-DLRip 1080p] MVO (NewStudio) + Original anvad
7 | 1

0 | 703

7

14.03.2018 15:11


Яндекс.Метрика powered by Sphinx


В Н И М А Н И Е
Сайт не распространяет и не хранит электронные версии произведений, а лишь бесплатно и без коммерческой выгоды (не требуя взамен платы,
SMS и т.д.) предоставляет доступ к создаваемому пользователями каталогу ссылок на торрент-файлы, которые содержат только списки хеш-сумм.
Убедительная просьба с жалобами обращаться напрямую к пользователю, разместившему торрент файл.

Вверх